Lego фільм / Леґо фільм / The Lego Movie (2014) Remux 1080p Ukr/Eng | Sub Ukr/Eng

Нові коментарі

Нова тема   Відповісти
Останній раз роздавалося Jenli (2019-12-18)
Автор Повідомлення
Argentum 
Поважний учасник


З нами з: 25.09.11
Востаннє: 28.02.20
Повідомлень: 239

2019-04-23 18:35  
Lego фільм / Леґо фільм / The Lego Movie (2014) Remux 1080p Ukr/Eng | Sub Ukr/Eng

Lego фільм / Леґо фільм / The Lego Movie (2014) Remux 1080p Ukr/Eng | Sub Ukr/Eng
Альтернативний постер:



Жанр: анімація, пригодницький, комедія, фантастика
Країна: Австралія, США, Данія



Кінокомпанія: Warner Bros., Village Roadshow Pictures, LEGO
Режисер: Філ Лорд, Кріс Міллер
Актори: Кріс Пратт, Вілл Феррелл, Елізабет Бенкс, Вілл Арнетт, Ліам Нісон, Морґан Фрімен, Джона Гіл, Ченнінґ Тейтум, Елісон Брі, Ентоні Деніелс, Чарлі Дей

Сюжет:
Популярний серед дітей і дорослих світ Lego тепер і на екрані! Разом з простаком Емметом вам пропонується відправитися в довгий і звивистий шлях, щоб убити злого диктатора. Але хіба такі як Еммет здатні врятувати світ? Ні, якщо їм не допомагають такі герої, як, наприклад, Бетмен на своєму бетвінґу та інші персонажі Lego. Чудакуватому, але милому герою протистоятиме і допомагатиме весь всесвіт, в якому знайдеться місце Супермену, русалці, волхвам, роботам та іншим. Пориньте в неймовірний світ блоків і фігурок, які перенесуть вас у дитинство і подарують насолоду довжиною в півтори години.


Тривалість: 01:40:35
Якість: Remux 1080p
Відео:
кодек:
розмір кадру: 1920 х 1080
бітрейт: 25,2 Мб/с

Аудіо # 1:
мова: українська
переклад: професійний дубльований | студія Postmodern
кодек: 5.1
бітрейт: 448 кб/с
Інформація про дубляж
Переклад: Сергія Ковальчука
Режисер дубляжу: Катерина Брайковська
Звукорежисер: Олександр Мостовенко
Звукорежисер перезапису: Марія Нестеренко
Ролі дублювали: Іван Розін, Наталя Романько-Кисельова, Михайло Войчук, Олександр Ігнатуша, Михайло Жонін, Андрій Твердак, Дмитро Завадський, Катерина Брайковська, Андрій Гайдай, Кирило Нікітенко та інші.

Фільм перекладено і дубльовано студією Postmodern на замовлення "Кіноманія".
Аудіо # 2:
мова: англійська
переклад: оригінал
кодек: 5.1
бітрейт: 1509 кб/с

Субтитри 1-2: (форсовані, повні)
мова: українська
тип: програмні (м'які)
формат: *.srt

Субтитри 3-4: (Full, SDH)
мова: англійська
тип: програмні (м'які)
формат: *.srt
Info
General
Unique ID : 208297529350307973049901455997747756701 (0x9CB4A518EFF6028719819FCBE1AA7E9D)
Complete name : The Lego Movie (2014) [Ukr, Eng] Remux 1080p [Hurtom].
Format :
Format version : Version 4
File size : 19.1 GiB
Duration : 1 h 40 min
Overall bit rate mode : Variable
Overall bit rate : 27.2 Mb/s
Movie name : The Lego Movie (2014) [Ukr, Eng] Remux 1080p
Encoded date : UTC 2019-04-23 07:02:05
Writing application : v33.1.0 ('Primrose') 64-bit
Writing library : libebml v1.3.7 + v1.5.0
Attachments : 28EUEBmTjrA9KpyzwSIndOYLBTG.jpg

Video
ID : 1
Format : AVC
Format/Info : Advanced Video Codec
Format profile : [email protected]
Format settings : CABAC / 2 Ref Frames
Format settings, CABAC : Yes
Format settings, Reference : 2 frames
Format settings, GOP : M=1, N=10
Codec ID : V_MPEG4/ISO/AVC
Duration : 1 h 40 min
Bit rate mode : Variable
Bit rate : 25.2 Mb/s
Width : 1 920 pixels
Height : 1 080 pixels
Display aspect ratio : 16:9
Frame rate mode : Constant
Frame rate : 23.976 (24000/1001) FPS
Color space : YUV
Chroma subsampling : 4:2:0
Bit depth : 8 bits
Scan type : Progressive
Bits/(Pixel*Frame) : 0.507
Stream size : 17.7 GiB (93%)
Title : AVC 1920*1080 @ 25.2 Mbps
Language : Multiple languages
Default : Yes
Forced : Yes

Audio #1
ID : 2
Format : AC-3
Format/Info : Audio Coding 3
Commercial name : Dolby Digital
Codec ID : A_AC3
Duration : 1 h 40 min
Bit rate mode : Constant
Bit rate : 448 kb/s
Channel(s) : 6 channels
Channel layout : L R C LFE Ls Rs
Sampling rate : 48.0 kHz
Frame rate : 31.250 FPS (1536 SPF)
Bit depth : 16 bits
Compression mode : Lossy
Stream size : 322 MiB (2%)
Title : 5.1 @ 448 Kbps
Language : Ukrainian
Service kind : Complete Main
Default : Yes
Forced : Yes

Audio #2
ID : 3
Format :
Format/Info : Digital Theater Systems
Codec ID : A_DTS
Duration : 1 h 40 min
Bit rate mode : Constant
Bit rate : 1 509 kb/s
Channel(s) : 6 channels
Channel layout : C L R Ls Rs LFE
Sampling rate : 48.0 kHz
Frame rate : 93.750 FPS (512 SPF)
Bit depth : 16 bits
Compression mode : Lossy
Stream size : 1.06 GiB (6%)
Title : 5.1 @ 1509 Kbps
Language : English
Default : No
Forced : No

Text #1
ID : 4
Format : UTF-8
Codec ID : S_TEXT/UTF8
Codec ID/Info : UTF-8 Plain Text
Duration : 1 h 38 min
Bit rate : 1 b/s
Count of elements : 36
Stream size : 1.02 KiB (0%)
Title : Forced
Language : Ukrainian
Default : Yes
Forced : Yes

Text #2
ID : 5
Format : UTF-8
Codec ID : S_TEXT/UTF8
Codec ID/Info : UTF-8 Plain Text
Duration : 1 h 39 min
Bit rate : 119 b/s
Count of elements : 2010
Stream size : 87.6 KiB (0%)
Title : Full
Language : Ukrainian
Default : No
Forced : No

Text #3
ID : 6
Format : UTF-8
Codec ID : S_TEXT/UTF8
Codec ID/Info : UTF-8 Plain Text
Duration : 1 h 38 min
Bit rate : 83 b/s
Count of elements : 1979
Stream size : 59.9 KiB (0%)
Title : Full
Language : English
Default : No
Forced : No

Text #4
ID : 7
Format : UTF-8
Codec ID : S_TEXT/UTF8
Codec ID/Info : UTF-8 Plain Text
Duration : 1 h 39 min
Bit rate : 89 b/s
Count of elements : 2154
Stream size : 65.2 KiB (0%)
Title : SDH
Language : English
Default : No
Forced : No

Menu
00:00:00.000 : en:Chapter 01
00:09:44.042 : en:Chapter 02
00:18:18.389 : en:Chapter 03
00:29:50.747 : en:Chapter 04
00:38:48.034 : en:Chapter 05
00:48:45.047 : en:Chapter 06
00:57:49.424 : en:Chapter 07
01:06:05.253 : en:Chapter 08
01:16:24.205 : en:Chapter 09
01:25:56.151 : en:Chapter 10
01:32:57.322 : en:Chapter 11
Скріншоти







Джерело:
Особиста оцінка: 8 - мені сподобалося

Не забуваємо тиснути "Дякую"!


Золотий реліз (завантажене не впливає на рейтинг)
 Трекер:    Зареєстрований   

Завантажити / скачати мультфільм українською



відео для новачків



 Зареєстрований:   2019-04-24 12:23
 Розмір:   19.08 GB 
 Оцінка мультфільму:   9/10 (Голосів: 6)
   
bot 
робот


З нами з: 30.09.07
Востаннє: 26.05.05
Повідомлень: 23421

2019-04-24 12:23  
Тему перенесено з Анонси релізів до форуму Мультфільми в HD


Argentum

Ваш часовий пояс: GMT + 2 Години

Нова тема   Відповісти