Тяжке кохання в отаку (Серія 2 з 11) / Wotaku ni Koi wa Muzukashii / Wotakoi (2018) 720p Ukr/Jap

Нові коментарі

Нова тема   Відповісти
Автор Повідомлення
Mitsuruki 
VIP


З нами з: 27.09.17
Востаннє: 22.05.19
Повідомлень: 373

2019-04-23 15:20  
Тяжке кохання в отаку (Серія 2 з 11) / Wotaku ni Koi wa Muzukashii / Wotakoi (2018) 720p Ukr/Jap

Тяжке кохання в отаку (Серія 2 з 11) / Wotaku ni Koi wa Muzukashii / Wotakoi (2018) 720p Ukr/Jap


Жанр: Мелодрама, Комедія
Країна: Японія



Кінокомпанія: A-1 Pictures
Режисер: Хірайке Йошімаса
Сюжет:
Непрості стосунки двох молодих отаку в японській офісній буденності.


Тривалість: 1 серія: 22:55 (цілком серій: 1)
Перелік серій
1.Нова зустріч Нарумі та Хіротаки, і... (22 хв. 55 сек.)
2.Ми що, почали зустрічатися? (22 хв. 55 сек.)
Якість: 720p
Відео:
кодек:
розмір кадру: 1280x720
бітрейт: ~ 1 250 кб/с

Аудіо # 1:
мова: українська
переклад: багатоголосий закадровий
кодек: 2.0
бітрейт: 304 кб/с

Аудіо # 2:
мова: японська
переклад: оригінал
кодек: 2.0
бітрейт: 192 кб/с

Субтитри:
мова: українська
тип: програмні (м'які)
формат: *.
Info
General
Unique ID : 283294907015257964996865878746100056154 (0xD5209D4CAE5219BDE07EF770546AC05A)
Complete name : F:\Rainy984\Òîëîêà\[Mitsuruki] Wotaku ni Koi wa Muzukashii [720p]\[Mitsuruki] Wotaku ni Koi wa Muzukashii - 01 [720p].
Format :
Format version : Version 4 / Version 2
File size : 287 MiB
Duration : 22 min 57 s
Overall bit rate mode : Variable
Overall bit rate : 1 746 kb/s
Encoded date : UTC 2019-04-23 12:12:34
Writing application : v30.1.0 ('Forever And More') 64-bit
Writing library : libebml v1.3.6 + v1.4.9
Attachments : OpenSans-Semibold.ttf

Video
ID : 1
Format : AVC
Format/Info : Advanced Video Codec
Format profile : [email protected]
Format settings : CABAC / 5 Ref Frames
Format settings, CABAC : Yes
Format settings, ReFrames : 5 frames
Codec ID : V_MPEG4/ISO/AVC
Duration : 22 min 54 s
Bit rate mode : Variable
Bit rate : 1 251 kb/s
Maximum bit rate : 4 500 kb/s
Width : 1 280 pixels
Height : 720 pixels
Display aspect ratio : 16:9
Frame rate mode : Constant
Frame rate : 23.976 (24000/1001) FPS
Color space : YUV
Chroma subsampling : 4:2:0
Bit depth : 8 bits
Scan type : Progressive
Bits/(Pixel*Frame) : 0.057
Stream size : 205 MiB (72%)
Default : Yes
Forced : No
Color range : Limited
Color primaries : BT.709
Transfer characteristics : BT.709
Matrix coefficients : BT.709

Audio #1
ID : 2
Format :
Format/Info : Advanced Audio Codec
Format profile : LC
Codec ID : A_AAC-2
Duration : 22 min 57 s
Bit rate : 304 kb/s
Channel(s) : 2 channels
Channel positions : Front: L R
Sampling rate : 48.0 kHz
Frame rate : 46.875 FPS (1024 SPF)
Compression mode : Lossy
Stream size : 49.9 MiB (17%)
Title : Óêðà¿íñüêà (Mitsuruki)
Language : Ukrainian
Default : Yes
Forced : No

Audio #2
ID : 3
Format :
Format/Info : Advanced Audio Codec
Format profile : LC
Codec ID : A_AAC-2
Duration : 22 min 55 s
Bit rate : 192 kb/s
Channel(s) : 2 channels
Channel positions : Front: L R
Sampling rate : 48.0 kHz
Frame rate : 46.875 FPS (1024 SPF)
Compression mode : Lossy
Stream size : 31.0 MiB (11%)
Default : No
Forced : No

Text
ID : 4
Format :
Codec ID : S_TEXT/
Codec ID/Info : Advanced Sub Station Alpha
Duration : 21 min 54 s
Bit rate : 155 b/s
Count of elements : 370
Compression mode : Lossless
Stream size : 25.0 KiB (0%)
Language : Ukrainian
Default : Yes
Forced : No
Скріншоти


Джерело: HorribleSubs + Переклад Mitsuruki (HeavyUA, Gunner, Серафікус, Furunze, Написар)
Озвучення: Rainy984, Invoker_mmp, Лисеня, Artymko, Kyxylin
Українізований постер: Liska
Особиста оцінка: 10 - без зайвих вагань рекомендую всім!


Авторський реліз (завантажувати можна без реєстрації)
 Трекер:    Зареєстрований   

Завантажити / скачати аніме українською



відео для новачків



 Зареєстрований:   2019-05-16 15:02
 Розмір:   488 MB 
 Оцінка аніме:   10/10 (Голосів: 4)
   
Mitsuruki 
VIP


З нами з: 27.09.17
Востаннє: 22.05.19
Повідомлень: 373

2019-04-23 15:21  
Додана перша серія, приємного перегляду!
Mitsuruki 
VIP


З нами з: 27.09.17
Востаннє: 22.05.19
Повідомлень: 373

2019-05-16 15:02  
ДОДАНО 2 СЕРІЮ.
Ваш часовий пояс: GMT + 2 Години

Нова тема   Відповісти