Як приборкати дракона 3: Прихований світ / How to Train Your Dragon: The Hidden World (2019) UHD 4K 2160p HDR H.265 Ukr/Eng | Sub Eng

Нові коментарі

Нова тема   Відповісти
Автор Повідомлення
Babamin 
Свій


З нами з: 29.12.15
Востаннє: 12.12.19
Повідомлень: 67

2019-04-23 12:58  
Як приборкати дракона 3: Прихований світ / How to Train Your Dragon: The Hidden World (2019) UHD 4K 2160p HDR H.265 Ukr/Eng | Sub Eng

Як приборкати дракона 3: Прихований світ / How to Train Your Dragon: The Hidden World (2019) UHD 4K 2160p HDR H.265 Ukr/Eng | Sub Eng



Жанр: анімація, пригодницький, фентезі, сімейний
Країна: США



Кінокомпанія: DreamWorks Animation, Universal Pictures
Режисер: Дін ДеБлуа
Актори: Пол Джей Барушель, Америка Феррера, Фарід Мюррей Абрахам, Кейт Бланшетт, Джерард Батлер, Крейг Фергюсон, Джона Гілл, Крістофер Мінц-Пласс, Крістен Віг, Кіт Герінгтон та інші

Сюжет:
Далеко не завжди дракони та люди жили в мирі та гармонії. Багато років вони воювали, не розуміючи, як можна існувати разом. Але завдяки Іккінгу, молодому синові вождя людей Стоїка, нарешті було досягнуто спокій. Він разом зі своїм рідкісним драконом нічною фурією на прізвисько Беззубик змогли помирити людей і драконів, змусили їх жити разом і ділити острів, їжу та ціле життя одне з одним. Навіть виявилося, що Беззубик не такий і унікальний – існує самка його виду, денна фурія, і між ними явно зароджується симпатія... Щастя не могло тривати вічно – на острів насувається ціла армада мисливців за драконами, які хочуть усіх їх винищити. Якщо не знайти міфічний Прихований світ, де, за чутками, є тисячі драконів, перемогти в цій війні буде неможливо. Люди повинні захистити своїх драконів.


Тривалість: 01:44:06
Якість: UltraHD 4K 2160p
Контейнер:

Відео:
кодек: H.265
розмір кадру: 3840 х 1636
бітрейт: 14,3 Мб/с
бітова глибина: 10 біт
кольоровий простір: BT.2020 (HDR)
Увага! Перед завантаженням переконайтесь, що ваш пристрій відтворення (та/або ПЗ) підтримує H.265 (HEVC)
Аудіо # 1:
мова: українська
переклад: професійний дубльований | студія LeDoyen
кодек: 2.0
бітрейт: 192 кб/с

Аудіо # 2:
мова: англійська
переклад: оригінал
кодек: 5.1
бітрейт: 640 кб/с

Субтитри # 1-2:
мова: англійська (Full, SDH)
тип: програмні (м'які)
формат: *.srt
Log + Info:
y4m [info]: 3840x1636 fps 24000/1001 i420p10 sar 1:1
x265 [info]: HEVC encoder version 2.9+35-bad4e598cac7
x265 [info]: build info [Windows][GCC 6.3.0][64 bit] 10bit
x265 [info]: Main 10 profile, Level-5.1 (High tier)
x265 [info]: frame I: 1360, Avg QP:12.86 kb/s: 40933.57
x265 [info]: frame P: 34681, Avg QP:15.15 kb/s: 28177.55
x265 [info]: frame B: 113716, Avg QP:18.50 kb/s: 9788.52
x265 [info]: Weighted P-Frames: Y:11.3% UV:8.1%
x265 [info]: Weighted B-Frames: Y:11.3% UV:7.2%
x265 [info]: consecutive B-frames: 11.8% 7.8% 8.9% 33.6% 16.8% 10.9% 4.3% 6.0%
encoded 149757 frames in 525744.86s (0.28 fps), 14329.93 kb/s, Avg QP:17.67
vpyp [info]: Output 149757 frames in 525680.62 seconds (0.28 fps)
Final file size is 10.4 GB bytes.

General
Complete name : How.to.Train.Your.Dragon-The.Hidden.World.(2019).UHD..HDR.2160p.[Ukr, Eng].[Hurtom].
Format :
Format version : Version 4
File size : 11.0 GiB
Duration : 1 h 44 min
Overall bit rate : 15.2 Mb/s
Movie name : Як приборкати дракона 3: Прихований світ / How to Train Your Dragon: The Hidden World (2019) [UKR_ENG] [Hurtom]
Encoded date : UTC 2019-04-23 10:21:29
Writing application : v33.0.0 ('A Little Bit of Madness') 64-bit
Writing library : libebml v1.3.7 + v1.5.0

Video
ID : 1
Format : HEVC
Format/Info : High Efficiency Video Coding
Commercial name : HDR10
Format profile : Main [email protected]@High
Codec ID : V_MPEGH/ISO/HEVC
Duration : 1 h 44 min
Bit rate : 14.3 Mb/s
Width : 3 840 pixels
Height : 1 636 pixels
Display aspect ratio : 2.35:1
Frame rate mode : Constant
Frame rate : 23.976 (24000/1001) FPS
Color space : YUV
Chroma subsampling : 4:2:0 (Type 2)
Bit depth : 10 bits
Bits/(Pixel*Frame) : 0.095
Stream size : 10.4 GiB (94%)
Title : Як приборкати дракона 3: Прихований світ / How to Train Your Dragon: The Hidden World (2019) [UKR_ENG] [Hurtom]
Writing library : x265 2.9+35-bad4e598cac7:[Windows][GCC 6.3.0][64 bit] 10bit
Encoding settings : cpuid=1111039 / frame-threads=4 / numa-pools=12 / wpp / no-pmode / no-pme / no-psnr / no-ssim / log-level=2 / input-csp=1 / input-res=3840x1636 / interlace=0 / total-frames=149757 / level-idc=51 / high-tier=1 / uhd-bd=0 / ref=4 / no-allow-non-conformance / repeat-headers / annexb / no-aud / no-hrd / info / hash=0 / no-temporal-layers / no-open-gop / min-keyint=24 / keyint=250 / gop-lookahead=0 / bframes=7 / b-adapt=2 / b-pyramid / bframe-bias=0 / rc-lookahead=48 / lookahead-slices=4 / scenecut=40 / radl=0 / no-splice / no-intra-refresh / ctu=64 / min-cu-size=8 / rect / amp / max-tu-size=32 / tu-inter-depth=4 / tu-intra-depth=4 / limit-tu=0 / rdoq-level=2 / dynamic-rd=0.00 / no-ssim-rd / signhide / no-tskip / nr-intra=0 / nr-inter=0 / no-constrained-intra / strong-intra-smoothing / max-merge=5 / limit-refs=3 / no-limit-modes / me=4 / subme=7 / merange=57 / temporal-mvp / weightp / weightb / no-analyze-src-pics / deblock=-2:-2 / no-sao / no-sao-non-deblock / rd=4 / no-early-skip / no-rskip / no-fast-intra / no-tskip-fast / no-cu-lossless / b-intra / no-splitrd-skip / rdpenalty=0 / psy-rd=2.00 / psy-rdoq=1.35 / no-rd-refine / no-lossless / cbqpoffs=0 / crqpoffs=0 / rc=crf / crf=15.0 / qcomp=0.65 / qpstep=1 / stats-write=0 / stats-read=0 / vbv-maxrate=160000 / vbv-bufsize=160000 / vbv-init=0.9 / crf-max=0.0 / crf-min=0.0 / ipratio=1.35 / pbratio=1.23 / aq-mode=1 / aq-strength=1.00 / cutree / zone-count=8 / zones: / start-frame=0 / end-frame=7516 / bitrate-factor=1.100000 / zones: / start-frame=15029 / end-frame=19443 / bitrate-factor=1.070000 / zones: / start-frame=25628 / end-frame=29593 / bitrate-factor=1.070000 / zones: / start-frame=35453 / end-frame=44837 / bitrate-factor=1.080000 / zones: / start-frame=67916 / end-frame=68896 / bitrate-factor=1.060000 / zones: / start-frame=73356 / end-frame=85251 / bitrate-factor=1.070000 / zones: / start-frame=97042 / end-frame=98836 / bitrate-factor=1.040000 / zones: / start-frame=139604 / end-frame=149756 / bitrate-factor=0.500000 / no-strict-cbr / qg-size=32 / no-rc-grain / qpmax=69 / qpmin=0 / no-const-vbv / sar=1 / overscan=0 / videoformat=5 / range=0 / colorprim=9 / transfer=16 / colormatrix=9 / chromaloc=1 / chromaloc-top=2 / chromaloc-bottom=2 / display-window=0 / master-display=G(13250,34500)B(7500,3000)R(34000,16000)WP(15635,16450)L(10000000,50) / max-cll=845,196 / min-luma=0 / max-luma=1023 / log2-max-poc-lsb=8 / vui-timing-info / vui-hrd-info / slices=1 / no-opt-qp-pps / no-opt-ref-list-length-pps / no-multi-pass-opt-rps / scenecut-bias=0.05 / no-opt-cu-delta-qp / no-aq-motion / hdr / hdr-opt / no-dhdr10-opt / no-idr-recovery-sei / analysis-reuse-level=5 / scale-factor=0 / refine-intra=0 / refine-inter=0 / refine-mv=0 / refine-ctu-distortion=0 / no-limit-sao / ctu-info=0 / no-lowpass-dct / refine-analysis-type=0 / copy-pic=1 / max-ausize-factor=1.0 / no-dynamic-refine / no-single-sei / no-hevc-aq / qp-adaptation-range=1.00
Language : English
Default : Yes
Forced : No
Color range : Limited
Color primaries : BT.2020
Transfer characteristics : PQ
Matrix coefficients : BT.2020 non-constant
Mastering display color primaries : Display P3
Mastering display luminance : min: 0.0050 cd/m2, max: 1000 cd/m2
Maximum Content Light Level : 845 cd/m2
Maximum Frame-Average Light Level : 196 cd/m2

Audio #1
ID : 2
Format : AC-3
Format/Info : Audio Coding 3
Commercial name : Dolby Digital
Codec ID : A_AC3
Duration : 1 h 44 min
Bit rate mode : Constant
Bit rate : 192 kb/s
Channel(s) : 2 channels
Channel layout : L R
Sampling rate : 48.0 kHz
Frame rate : 31.250 FPS (1536 SPF)
Bit depth : 16 bits
Compression mode : Lossy
Stream size : 143 MiB (1%)
Title : Студiя LeDoyen
Language : Ukrainian
Service kind : Complete Main
Default : Yes
Forced : No

Audio #2
ID : 3
Format : AC-3
Format/Info : Audio Coding 3
Commercial name : Dolby Digital
Codec ID : A_AC3
Duration : 1 h 44 min
Bit rate mode : Constant
Bit rate : 640 kb/s
Channel(s) : 6 channels
Channel layout : L R C LFE Ls Rs
Sampling rate : 48.0 kHz
Frame rate : 31.250 FPS (1536 SPF)
Bit depth : 16 bits
Compression mode : Lossy
Stream size : 477 MiB (4%)
Language : English
Service kind : Complete Main
Default : No
Forced : No

Text #1
ID : 4
Format : UTF-8
Codec ID : S_TEXT/UTF8
Codec ID/Info : UTF-8 Plain Text
Duration : 1 h 32 min
Bit rate : 46 b/s
Count of elements : 1100
Stream size : 31.5 KiB (0%)
Title : Full
Language : English
Default : No
Forced : No

Text #2
ID : 5
Format : UTF-8
Codec ID : S_TEXT/UTF8
Codec ID/Info : UTF-8 Plain Text
Duration : 1 h 32 min
Bit rate : 60 b/s
Count of elements : 1545
Stream size : 40.9 KiB (0%)
Title : SDH
Language : English
Default : No
Forced : No

Menu
00:00:00.000 : en:Chapter 01
00:05:13.521 : en:Chapter 02
00:10:26.834 : en:Chapter 03
00:14:52.224 : en:Chapter 04
00:20:33.065 : en:Chapter 05
00:24:38.685 : en:Chapter 06
00:28:40.885 : en:Chapter 07
00:31:10.118 : en:Chapter 08
00:37:35.127 : en:Chapter 09
00:44:38.550 : en:Chapter 10
00:47:53.579 : en:Chapter 11
00:53:11.021 : en:Chapter 12
00:57:36.286 : en:Chapter 13
01:01:25.056 : en:Chapter 14
01:08:55.923 : en:Chapter 15
01:14:17.703 : en:Chapter 16
01:19:31.141 : en:Chapter 17
01:23:23.289 : en:Chapter 18
01:28:24.716 : en:Chapter 19
01:33:53.377 : en:Chapter 20
Скріншоти:











Джерело: &

Подяка пану winjer за аудіодоріжку #1.


 Трекер:    Зареєстрований   

Завантажити / скачати мультфільм українською



відео для новачків



 Зареєстрований:   2019-04-23 12:58
 Розмір:   11.03 GB 
 Оцінка мультфільму:   9.4/10 (Голосів: 19)
   
Інші релізи
   Як приборкати дракона 3: Прихований світ / How to Train Your Dragon: The Hidden World (2019) 1080p 3D [Half OverUnder] Ukr/Eng | Sub Eng [16:9 Cropped] дядя1111  9 / 0   7.74 GB   2019-07-14 19:19 
   Як приборкати дракона 3: Прихований світ / How to Train Your Dragon: The Hidden World (2019) UHD Remux 2160p 4K HDR H.265 Ukr/Eng | Sub Eng Argentum  9 / 0   56.02 GB   2019-04-20 14:17 
   Як приборкати дракона 3: Прихований світ / How to Train Your Dragon: The Hidden World (2019) Remux 1080p Ukr/Eng | Sub Eng staf777  26 / 0   23.14 GB   2019-04-19 19:18 
   Як приборкати дракона 3: Прихований світ / How to Train Your Dragon: The Hidden World (2019) 1080p Ukr/Eng | Sub Eng staf777  68 / 1   7.82 GB   2019-04-19 18:20 
   Як приборкати дракона 3: Прихований світ / How to Train Your Dragon: The Hidden World (2019) 720p Ukr/Eng | Sub Eng 11FrYkT  64 / 4   4.59 GB   2019-04-19 09:52 
   Як приборкати дракона 3: Прихований світ / How to Train Your Dragon: The Hidden World (2019) AVC Ukr/Eng | Sub Eng 11FrYkT  129 / 1   2.15 GB   2019-04-19 09:32 
   Як приборкати дракона 3: Прихований світ / How to Train Your Dragon: The Hidden World (2019) Ukr/Eng Electroz  105 / 6   1.42 GB   2019-04-18 23:51 
[email protected] 
Новенький


З нами з: 24.06.18
Востаннє: 10.10.19
Повідомлень: 8

2019-10-09 18:28  
Зображення немає. Яким переглядачем це переглядати?

Додано через 3 хвилини 36 секунд:

Оновив VLC. Зображення з'явилося - але так капітально підвисає, що все одне, що його немає.

Ваш часовий пояс: GMT + 2 Години

Нова тема   Відповісти