The Hardkiss - Залізна ластівка (2018) [] | Pop Rock

Нові коментарі

Нова тема   Відповісти
Автор Повідомлення
fanDYNAMO 
Свій


З нами з: 30.12.12
Востаннє: 08.11.19
Повідомлень: 51

2019-04-22 20:59  
The Hardkiss - Залізна ластівка (2018) [] | Pop Rock

The Hardkiss - Залізна ластівка (2018) [] | Pop Rock


Стиль: Pop Alternative Rock
Країна, місто: Україна, Київ
Сайти: Офіційний сайт
Видавець: The Hardkiss Self-Released
Виконавці:
Юлія Саніна – спів, тексти, музика
Валерій «Val» Бебко – музика, програмування, гітара
Kreechy – ударні
Клим Лисюк

Пісні:
    01. Привіт (00:49)
    02. Журавлі (02:48)
    03. Коханці (04:01)
    04. Forever More (03:47)
    05. Free Me (03:12)
    06. Серце (02:51)
    07. Море (01:05)
    08. Кораблі (03:23)
    09. Де ти є (04:18)
    10. Does It Feel (04:39)
    11. Хто, як не ти (03:33)
    12. 00:00 (04:16)
    13. Мелодія (03:54)
    14. Андромеда (01:19)
    15. Астронавт (03:43)
    16. Complicity (03:49)
    17. Бувай (01:30)

Тривалість: 00:53:38
Мова: українська (1-3,6-9,11,12-15,17), англійська (4,5,10,16)
Аудіо-кодек:
Бітрейт: 615 - 1066 кб/с
Джерело: Інтернет
"Звіт EAC"
Exact Audio Copy V1.3 from 2. September 2016

EAC extraction logfile from 23. October 2018, 20:27

The Hardkiss / Залізна ластівка

Used drive : hp DVD RAM UJ8C2 Adapter: 1 ID: 0

Read mode : Secure
Utilize accurate stream : Yes
Defeat audio cache : Yes
Make use of C2 pointers : No

Read offset correction : 103
Overread into Lead-In and Lead-Out : No
Fill up missing offset samples with silence : Yes
Delete leading and trailing silent blocks : No
Null samples used in CRC calculations : Yes
Used interface : Native Win32 interface for Win NT & 2000
Gap handling : Appended to previous track

Used output format : User Defined Encoder
Selected bitrate : 896 kBit/s
Quality : High
Add ID3 tag : No
Command line compressor : C:\Program Files (x86)\Exact Audio Copy\\.EXE
Additional command line options : -V -8 -T "Genre=%genre%" -T "Artist=%artist%" -T "Title=%title%" -T "Album=%albumtitle%" -T "Date=%year%" -T "Tracknumber=%tracknr%" -T "Comment=%comment%" %source%

TOC of the extracted CD

Track | Start | Length | Start sector | End sector
---------------------------------------------------------
1 | 0:00.00 | 0:51.58 | 0 | 3882
2 | 0:51.58 | 2:50.69 | 3883 | 16701
3 | 3:42.52 | 4:03.10 | 16702 | 34936
4 | 7:45.62 | 3:49.53 | 34937 | 52164
5 | 11:35.40 | 3:14.12 | 52165 | 66726
6 | 14:49.52 | 2:53.39 | 66727 | 79740
7 | 17:43.16 | 1:07.15 | 79741 | 84780
8 | 18:50.31 | 3:25.64 | 84781 | 100219
9 | 22:16.20 | 4:20.55 | 100220 | 119774
10 | 26:37.00 | 4:41.59 | 119775 | 140908
11 | 31:18.59 | 3:35.16 | 140909 | 157049
12 | 34:54.00 | 4:18.21 | 157050 | 176420
13 | 39:12.21 | 3:56.36 | 176421 | 194156
14 | 43:08.57 | 1:21.37 | 194157 | 200268
15 | 44:30.19 | 3:45.21 | 200269 | 217164
16 | 48:15.40 | 3:51.45 | 217165 | 234534
17 | 52:07.10 | 1:30.30 | 234535 | 241314

Track 1

Filename D:\Музыка\The Hardkiss\2018 - The Hardkiss - Залізна ластівка\01. Привіт.wav

Pre-gap length 0:00:02.00

Peak level 84.8 %
Extraction speed 0.7 X
Track quality 99.7 %
Test CRC A204B846
Copy CRC A204B846
Copy OK

Track 2

Filename D:\Музыка\The Hardkiss\2018 - The Hardkiss - Залізна ластівка\02. Журавлі.wav

Peak level 95.7 %
Extraction speed 2.3 X
Track quality 100.0 %
Test CRC 3B21538C
Copy CRC 3B21538C
Copy OK

Track 3

Filename D:\Музыка\The Hardkiss\2018 - The Hardkiss - Залізна ластівка\03. Коханці.wav

Peak level 97.3 %
Extraction speed 2.7 X
Track quality 100.0 %
Test CRC FF8AB482
Copy CRC FF8AB482
Copy OK

Track 4

Filename D:\Музыка\The Hardkiss\2018 - The Hardkiss - Залізна ластівка\04. Forever More.wav

Peak level 96.2 %
Extraction speed 2.1 X
Track quality 99.9 %
Test CRC D8DE70C3
Copy CRC D8DE70C3
Copy OK

Track 5

Filename D:\Музыка\The Hardkiss\2018 - The Hardkiss - Залізна ластівка\05. Free Me.wav

Peak level 97.4 %
Extraction speed 3.0 X
Track quality 100.0 %
Test CRC 900EAA3B
Copy CRC 900EAA3B
Copy OK

Track 6

Filename D:\Музыка\The Hardkiss\2018 - The Hardkiss - Залізна ластівка\06. Серце.wav

Peak level 96.2 %
Extraction speed 3.1 X
Track quality 100.0 %
Test CRC 1D17A8DD
Copy CRC 1D17A8DD
Copy OK

Track 7

Filename D:\Музыка\The Hardkiss\2018 - The Hardkiss - Залізна ластівка\07. Море.wav

Peak level 96.0 %
Extraction speed 2.4 X
Track quality 100.0 %
Test CRC BF1100B9
Copy CRC BF1100B9
Copy OK

Track 8

Filename D:\Музыка\The Hardkiss\2018 - The Hardkiss - Залізна ластівка\08. Кораблі.wav

Peak level 97.5 %
Extraction speed 2.4 X
Track quality 99.9 %
Test CRC 6464AE09
Copy CRC 6464AE09
Copy OK

Track 9

Filename D:\Музыка\The Hardkiss\2018 - The Hardkiss - Залізна ластівка\09. Де ти є.wav

Peak level 98.3 %
Extraction speed 3.6 X
Track quality 100.0 %
Test CRC 5383517E
Copy CRC 5383517E
Copy OK

Track 10

Filename D:\Музыка\The Hardkiss\2018 - The Hardkiss - Залізна ластівка\10. Does It Feel.wav

Peak level 96.8 %
Extraction speed 3.9 X
Track quality 100.0 %
Test CRC 8E8B959B
Copy CRC 8E8B959B
Copy OK

Track 11

Filename D:\Музыка\The Hardkiss\2018 - The Hardkiss - Залізна ластівка\11. Хто, як не ти.wav

Peak level 96.4 %
Extraction speed 3.9 X
Track quality 100.0 %
Test CRC A3E2795C
Copy CRC A3E2795C
Copy OK

Track 12

Filename D:\Музыка\The Hardkiss\2018 - The Hardkiss - Залізна ластівка\12. 00-00.wav

Peak level 96.2 %
Extraction speed 3.2 X
Track quality 99.9 %
Test CRC 818F31C7
Copy CRC 818F31C7
Copy OK

Track 13

Filename D:\Музыка\The Hardkiss\2018 - The Hardkiss - Залізна ластівка\13. Мелодія.wav

Peak level 96.5 %
Extraction speed 4.3 X
Track quality 100.0 %
Test CRC E2AD0A43
Copy CRC E2AD0A43
Copy OK

Track 14

Filename D:\Музыка\The Hardkiss\2018 - The Hardkiss - Залізна ластівка\14. Андромеда.wav

Peak level 96.8 %
Extraction speed 3.4 X
Track quality 100.0 %
Test CRC 1D65F6AF
Copy CRC 1D65F6AF
Copy OK

Track 15

Filename D:\Музыка\The Hardkiss\2018 - The Hardkiss - Залізна ластівка\15. Астронавт.wav

Peak level 97.2 %
Extraction speed 4.4 X
Track quality 100.0 %
Test CRC 3B8F334E
Copy CRC 3B8F334E
Copy OK

Track 16

Filename D:\Музыка\The Hardkiss\2018 - The Hardkiss - Залізна ластівка\16. Complicity.wav

Peak level 98.2 %
Extraction speed 4.6 X
Track quality 100.0 %
Test CRC BAA2371C
Copy CRC BAA2371C
Copy OK

Track 17

Filename D:\Музыка\The Hardkiss\2018 - The Hardkiss - Залізна ластівка\17. Бувай.wav

Peak level 95.0 %
Extraction speed 3.9 X
Track quality 100.0 %
Test CRC BCBD0A75
Copy CRC BCBD0A75
Copy OK

No errors occurred

End of status report

==== Log checksum 343530BE793AB4303D957C3D59082A6BB58B7311A6D9BD7854DC85B9D7D8E750 ====
".CUE"
REM GENRE Alternative
REM DATE 2018
REM DISCID 000C9111
REM COMMENT "ExactAudioCopy v1.3"
PERFORMER "The Hardkiss"
TITLE "Залізна ластівка"
REM COMPOSER "Julia Sanina; Valeriy Bebko"
FILE "01. Привіт." WAVE
TRACK 01 AUDIO
TITLE "Привіт"
PERFORMER "The Hardkiss"
REM COMPOSER "Julia Sanina; Valeriy Bebko"
INDEX 01 00:00:00
FILE "02. Журавлі." WAVE
TRACK 02 AUDIO
TITLE "Журавлі"
PERFORMER "The Hardkiss"
REM COMPOSER "Julia Sanina; Valeriy Bebko"
INDEX 01 00:00:00
FILE "03. Коханці." WAVE
TRACK 03 AUDIO
TITLE "Коханці"
PERFORMER "The Hardkiss"
REM COMPOSER "Julia Sanina; Valeriy Bebko"
INDEX 01 00:00:00
FILE "04. Forever More." WAVE
TRACK 04 AUDIO
TITLE "Forever More"
PERFORMER "The Hardkiss"
REM COMPOSER "Julia Sanina; Valeriy Bebko"
INDEX 01 00:00:00
FILE "05. Free Me." WAVE
TRACK 05 AUDIO
TITLE "Free Me"
PERFORMER "The Hardkiss"
REM COMPOSER "Julia Sanina; Valeriy Bebko"
INDEX 01 00:00:00
FILE "06. Серце." WAVE
TRACK 06 AUDIO
TITLE "Серце"
PERFORMER "The Hardkiss"
REM COMPOSER "Julia Sanina; Valeriy Bebko"
INDEX 01 00:00:00
FILE "07. Море." WAVE
TRACK 07 AUDIO
TITLE "Море"
PERFORMER "The Hardkiss"
REM COMPOSER "Julia Sanina; Valeriy Bebko"
INDEX 01 00:00:00
FILE "08. Кораблі." WAVE
TRACK 08 AUDIO
TITLE "Кораблі"
PERFORMER "The Hardkiss"
REM COMPOSER "Julia Sanina; Valeriy Bebko"
INDEX 01 00:00:00
FILE "09. Де ти є." WAVE
TRACK 09 AUDIO
TITLE "Де ти є"
PERFORMER "The Hardkiss"
REM COMPOSER "Julia Sanina; Valeriy Bebko"
INDEX 01 00:00:00
FILE "10. Does It Feel." WAVE
TRACK 10 AUDIO
TITLE "Does It Feel"
PERFORMER "The Hardkiss"
REM COMPOSER "Julia Sanina; Valeriy Bebko"
INDEX 01 00:00:00
FILE "11. Хто, як не ти." WAVE
TRACK 11 AUDIO
TITLE "Хто, як не ти"
PERFORMER "The Hardkiss"
REM COMPOSER "Julia Sanina; Valeriy Bebko"
INDEX 01 00:00:00
FILE "12. 00-00." WAVE
TRACK 12 AUDIO
TITLE "00:00"
PERFORMER "The Hardkiss"
REM COMPOSER "Julia Sanina; Valeriy Bebko"
INDEX 01 00:00:00
FILE "13. Мелодія." WAVE
TRACK 13 AUDIO
TITLE "Мелодія"
PERFORMER "The Hardkiss"
REM COMPOSER "Julia Sanina; Valeriy Bebko"
INDEX 01 00:00:00
FILE "14. Андромеда." WAVE
TRACK 14 AUDIO
TITLE "Андромеда"
PERFORMER "The Hardkiss"
REM COMPOSER "Julia Sanina; Valeriy Bebko"
INDEX 01 00:00:00
FILE "15. Астронавт." WAVE
TRACK 15 AUDIO
TITLE "Астронавт"
PERFORMER "The Hardkiss"
REM COMPOSER "Julia Sanina; Valeriy Bebko"
INDEX 01 00:00:00
FILE "16. Complicity." WAVE
TRACK 16 AUDIO
TITLE "Complicity"
PERFORMER "The Hardkiss"
REM COMPOSER "Julia Sanina; Valeriy Bebko"
INDEX 01 00:00:00
FILE "17. Бувай." WAVE
TRACK 17 AUDIO
TITLE "Бувай"
PERFORMER "The Hardkiss"
REM COMPOSER "Julia Sanina; Valeriy Bebko"
INDEX 01 00:00:00
"Звіт auCDtect Task Manager"
-----------------------

DON'T MODIFY THIS FILE

-----------------------

PERFORMER: auCDtect Task Manager, ver. 1.6.0 RC1 build 1.6.0.1
Copyright (c) 2008-2010 y-soft. All rights reserved
http://y-soft.org

ANALYZER: auCDtect: CD records authenticity detector, version 0.8.2
Copyright (c) 2004 Oleg Berngardt. All rights reserved.
Copyright (c) 2004 Alexander Djourik. All rights reserved.

FILE: 17. Бувай.
Size: 7767469 Hash: 045731D653A91E5B376DFFD39702E507 Accuracy: -m0
Conclusion: CDDA 100%
Signature: 2AD8F30D1FCEB4FD72D57FAFDFD1A87CAB7AE340
FILE: 16. Complicity.
Size: 28385888 Hash: 9FEDCA1F492D9CB347444064F5675808 Accuracy: -m0
Conclusion: CDDA 100%
Signature: 91A116E0CCD7DF35F9920AE500EC45D56E6E13C2
FILE: 15. Астронавт.
Size: 28097409 Hash: D3BEAFEEF059D638115B53D3B5A7EF34 Accuracy: -m0
Conclusion: CDDA 100%
Signature: C6D16515197AD8121B35E8B2922EF61D9377B1D5
FILE: 14. Андромеда.
Size: 9042601 Hash: 6754B22A473945C9FAD134E6B53D8399 Accuracy: -m0
Conclusion: CDDA 100%
Signature: D1366E90B904441B5BE930091173B317E6746E0C
FILE: 13. Мелодія.
Size: 28240870 Hash: 2853933C6254D557C983A2E3D83C37F6 Accuracy: -m0
Conclusion: CDDA 100%
Signature: BD4896E4E771324A8327AD4339F189897C49F8B9
FILE: 12. 00-00.
Size: 28088582 Hash: 6E7E465F0C0F386480F69BDFE7922D41 Accuracy: -m0
Conclusion: CDDA 100%
Signature: 0FC38A1E88A297564439D22724E5FEC86D29506A
FILE: 11. Хто, як не ти.
Size: 24147595 Hash: 2150C019A15428BCF90EE514324659A9 Accuracy: -m0
Conclusion: CDDA 100%
Signature: 498A17314A0C92AB0FF6276B09EA05BF87AB1441
FILE: 10. Does It Feel.
Size: 36246099 Hash: 63094FF506C0FCC645A3871BC8D6AC68 Accuracy: -m0
Conclusion: CDDA 100%
Signature: 29CAD59533010A8F5A99FCC50FA1CFAE92DBA1AF
FILE: 09. Де ти є.
Size: 29334675 Hash: 816026D66A10E156686FB262DA51E2FF Accuracy: -m0
Conclusion: CDDA 100%
Signature: 55B9E7C5347D523D0A9FA716054BD62E5110B15B
FILE: 08. Кораблі.
Size: 27070399 Hash: 5A1D446E85A2F447D9D310EE20D844B5 Accuracy: -m0
Conclusion: CDDA 100%
Signature: C8A10E011EFE7AA02DC1ED5CB0D47A0575130244
FILE: 07. Море.
Size: 6773629 Hash: 01F6B7316B4747FCD59E909F83C2388D Accuracy: -m0
Conclusion: CDDA 100%
Signature: FA98760EA6AB0C84BDAFCCA0FB5758971CD40688
FILE: 06. Серце.
Size: 18029326 Hash: 02E04753CB44B510AF8FBD70DBB8F792 Accuracy: -m0
Conclusion: CDDA 99%
Signature: CD3EC0695637F1EC0D7A092A4FED921AAA38F400
FILE: 05. Free Me.
Size: 23134444 Hash: 652263EAABD2E6820E993DC08871A58F Accuracy: -m0
Conclusion: CDDA 100%
Signature: 62BEEFCD6DB7747DBF4B0EF1FCB8F9458DBCE715
FILE: 04. Forever More.
Size: 25208642 Hash: BBD6DADF163BC032A70ED2A38D9310F0 Accuracy: -m0
Conclusion: CDDA 100%
Signature: 86B5317476174AB07AC4CD1B46B69B91C0787D34
FILE: 03. Коханці.
Size: 30987292 Hash: A71A1797FCF798462E5C3B47F7A53C3F Accuracy: -m0
Conclusion: CDDA 100%
Signature: 6C276426575515B4FFAC64584510C920829EB1E1
FILE: 02. Журавлі.
Size: 17613957 Hash: B01C61A23ECB12C35EDB60501229CDFE Accuracy: -m0
Conclusion: CDDA 100%
Signature: 5A4DF84A70A26F707E306648F051FF0D5E1304DD
FILE: 01. Привіт.
Size: 4663189 Hash: FD4D93612E017C041D513D6439AB2965 Accuracy: -m0
Conclusion: CDDA 100%
Signature: 754F935112F55ECF405211B46DEDB0EE263F4F08


Срібний реліз (на рейтинг впливає 50% завантаженого)
 Трекер:    Зареєстрований   

Завантажити / скачати українську музику



відео для новачків



 Зареєстрований:   2019-04-22 20:59
 Розмір:   356 MB 
 Оцінка музики:   10/10 (Голосів: 17)
   
not_bot 
Новенький


З нами з: 28.03.19
Востаннє: 07.11.19
Повідомлень: 1

2019-06-27 19:42  
Клас!
Ваш часовий пояс: GMT + 2 Години

Нова тема   Відповісти