Холмс та Ватсон / Holmes & Watson (2018) AVC Eng | Sub Ukr/Eng

Нові коментарі

Нова тема   Відповісти
Автор Повідомлення
Anonymous 







2019-04-22 01:25  
Холмс та Ватсон / Holmes & Watson (2018) AVC Eng | Sub Ukr/Eng



Жанр: комедія, кримінальний, детектив, пригодницький
Країна: США

4 Золотих малини



Кінокомпанія: Columbia Pictures, Gary Sanchez Productions, Mimran Schur Pictures, Mosaic Media Group, Mosaic
Режисер: Ітан Коен / Etan Cohen
Актори: Вілл Фаррел, Ральф Файнс, Лорен Лапкус, Ребекка Голл, Джон Сі Рейлі, Келлі Макдональд, Стів Куґан, Пем Ферріс, Г'ю Лорі, Роб Брайдон, Майкл Калкін, Бронсон Вебб та інші

Сюжет:
Історія про приватного детектива Шерлока Холмса і його напарника доктора Ватсона. Ексцентричний дует береться за заплутану справу, наживаючи ворогів з усього світу.


Тривалість: 01:29:55
Якість:
Відео:
кодек:
розмір кадру: 1024х428
бітрейт: 1976 кб/с

Аудіо:
мова: англійська
переклад: оригінал
кодек: 5.1
бітрейт: 448 кб/с

Субтитри:
мова: українська
тип: програмні (м'які)
формат: *.srt
переклад: Владислав Бурмістров

Субтитри:
мова: англійська
тип: програмні (м'які)
формат: *.srt

Збережено оригінальні розділи, як на Blu-ray
Info
Код:

Complete name               : Holmes and Watson (2018) [Eng sub.Ukr,Eng] AVC [Hurtom].
Format                      :
Format version              : Version 4
File size                   : 1.52 GiB
Duration                    : 1 h 29 min
Overall bit rate            : 2 422 kb/s
Movie name                  : Холмс та Ватсон / Holmes & Watson (2018) [Eng sub.Ukr,Eng] AVC [Hurtom]
Encoded date                : UTC 2019-04-22 18:39:39
Writing application         : v33.1.0 ('Primrose') 64-bit
Writing library             : libebml v1.3.7 + v1.5.0
Cover                       : Yes
Attachments                 : cover.jpg

Video
ID                          : 1
Format                      : AVC
Format/Info                 : Advanced Video Codec
Format profile              : [email protected]
Format settings             : CABAC / 10 Ref Frames
Format settings, CABAC      : Yes
Format settings, ReFrames   : 10 frames
Codec ID                    : V_MPEG4/ISO/AVC
Duration                    : 1 h 29 min
Bit rate                    : 1 976 kb/s
Width                       : 1 024 pixels
Height                      : 428 pixels
Display aspect ratio        : 2.40:1
Original display aspect rat : 2.40:1
Frame rate mode             : Constant
Frame rate                  : 23.976 (24000/1001) FPS
Color space                 : YUV
Chroma subsampling          : 4:2:0
Bit depth                   : 8 bits
Scan type                   : Progressive
Bits/(Pixel*Frame)          : 0.188
Stream size                 : 1.24 GiB (81%)
Title                       : Холмс та Ватсон / Holmes & Watson (2018) AVC [arkan12]
Writing library             : core 157 r2969 d4099dd
Encoding settings           : cabac=1 / ref=10 / deblock=1:-3:-3 / analyse=0x3:0x133 / me=umh / subme=10 / psy=1 / psy_rd=1.00:0.00 / mixed_ref=1 / me_range=32 / chroma_me=1 / trellis=2 / 8x8dct=1 / cqm=0 / deadzone=21,11 / fast_pskip=0 / chroma_qp_offset=-5 / threads=5 / lookahead_threads=1 / sliced_threads=0 / nr=0 / decimate=0 / interlaced=0 / bluray_compat=0 / constrained_intra=0 / bframes=10 / b_pyramid=2 / b_adapt=2 / b_bias=0 / direct=3 / weightb=1 / open_gop=0 / weightp=2 / keyint=240 / keyint_min=23 / scenecut=40 / intra_refresh=0 / rc=2pass / mbtree=0 / bitrate=1976 / ratetol=1.0 / qcomp=0.70 / qpmin=0 / qpmax=69 / qpstep=4 / cplxblur=20.0 / qblur=0.5 / ip_ratio=1.40 / pb_ratio=1.30 / aq=1:0.80
Language                    : English
Default                     : Yes
Forced                      : No

Audio
ID                          : 2
Format                      : AC-3
Format/Info                 : Audio Coding 3
Commercial name             : Dolby Digital
Codec ID                    : A_AC3
Duration                    : 1 h 29 min
Bit rate mode               : Constant
Bit rate                    : 448 kb/s
Channel(s)                  : 6 channels
Channel layout              : L R C LFE Ls Rs
Sampling rate               : 48.0 kHz
Frame rate                  : 31.250 FPS (1536 SPF)
Bit depth                   : 16 bits
Compression mode            : Lossy
Stream size                 : 288 MiB (18%)
Title                       : Original, 5.1 448 Kbps
Language                    : English
Service kind                : Complete Main
Default                     : Yes
Forced                      : No

Text #1
ID                          : 3
Format                      : UTF-8
Codec ID                    : S_TEXT/UTF8
Codec ID/Info               : UTF-8 Plain Text
Duration                    : 1 h 28 min
Bit rate                    : 124 b/s
Count of elements           : 1688
Stream size                 : 80.7 KiB (0%)
Title                       : Ukr full [Blu-ray EUR]
Language                    : Ukrainian
Default                     : Yes
Forced                      : Yes

Text #2
ID                          : 4
Format                      : UTF-8
Codec ID                    : S_TEXT/UTF8
Codec ID/Info               : UTF-8 Plain Text
Duration                    : 1 h 23 min
Bit rate                    : 89 b/s
Count of elements           : 1625
Stream size                 : 55.0 KiB (0%)
Title                       : Eng Full
Language                    : English
Default                     : No
Forced                      : No

Menu
00:00:00.000                : en:Chapter 01
00:03:19.199                : en:Chapter 02
00:08:35.473                : en:Chapter 03
00:15:47.154                : en:Chapter 04
00:19:52.482                : en:Chapter 05
00:24:59.706                : en:Chapter 06
00:33:06.067                : en:Chapter 07
00:38:11.080                : en:Chapter 08
00:42:55.322                : en:Chapter 09
00:51:08.231                : en:Chapter 10
00:58:25.627                : en:Chapter 11
01:01:14.879                : en:Chapter 12
01:07:44.602                : en:Chapter 13
01:11:27.950                : en:Chapter 14
01:18:00.300                : en:Chapter 15
01:21:33.805                : en:Chapter 16


Джерело: &


 Трекер:    Зареєстрований   

Завантажити / скачати фільм українською



відео для новачків



 Зареєстрований:   2019-04-22 22:18
 Розмір:   1.52 GB 
 Оцінка фільму:   8.9/10 (Голосів: 15)
   
jaral 
Відео Гуртом - підтримка та поширення
Відео Гуртом - підтримка та поширення


З нами з: 18.10.07
Востаннє: 18.07.19
Повідомлень: 800

2019-04-22 23:22  
Чому не Шерлок Гоумз, так як у IPA /ˈʃɜɹ.lɒk ˈhoʊmz/?
сер147 
Свій


З нами з: 11.03.12
Востаннє: 17.07.19
Повідомлень: 71

2019-05-25 08:59  
Це пародія на фільм Гая Річі?
Ваш часовий пояс: GMT + 2 Години

Нова тема   Відповісти