Змова / Conspiracy (2008) 1080p Ukr/Eng

Нові коментарі

Нова тема   Відповісти
Автор Повідомлення
Anonymous 







2019-04-21 18:59  
Змова / Conspiracy (2008) 1080p Ukr/Eng

Змова / Conspiracy (2008) 1080p Ukr/Eng


Жанр: бойовик, драма
Країна: США



Кінокомпанія: Stage 6 Films, Hollywood Media Bridge
Режисер: Adam Marcus
Актори: Вел Кілмер, Гарі Кол, Дженіфер Еспозіто, Джей Яблонскі, Грег Серано, Крістофер Гехрман, Скот Баркет

Сюжет:
Під час проведення спецоперації в Іраку Макферсон і його друг Мігель Сілва, який рятує йому життя отримують важкі поранення. Оговтавшись і підлікувавшись він отримує запрошення від свого друга приїхати до нього в гості в містечко Нове Лаго, яке розташоване неподалін кордону з Мексикою. Коли Макферсон приїжджає в місто, він не знаходить свого друга, і ніхто з місцевих жителів нічого не кажуть про Мігеля. Згодом він дізнається що в містечку усім заправляє Родос, директор корпорації Halicorp, який не дуже привітно ставиться до колишнього морського піхотинця і до того, що той винюхує інформацію про зниклого Мігеля.


Тривалість: 01:30:06
Якість:
Відео:
кодек:
розмір кадру: 1920 х 1080
бітрейт: 5 362 кб/с

Аудіо # 1:
мова: українська
переклад: багатоголосий закадровий
кодек: 2.0
бітрейт: 192 кб/с

Аудіо # 2:
мова: англійська
переклад: оригінал
кодек: 5.1
бітрейт: 384 кб/с
Info
General
Unique ID : 177936268378353222895348537350897085472 (0x85DD475BE9DE25B1BD06860195892C20)
Complete name : G:\HD Films\Conspiracy (2008) 1080p [ukr.eng] Hurtom.
Format :
Format version : Version 4
File size : 3.74 GiB
Duration : 1 h 30 min
Overall bit rate : 5 940 kb/s
Encoded date : UTC 2019-04-02 12:22:18
Writing application : v32.0.0 ('Astral Progressions') 64-bit
Writing library : libebml v1.3.7 + v1.5.0

Video
ID : 1
Format : AVC
Format/Info : Advanced Video Codec
Format profile : [email protected]
Format settings : CABAC / 4 Ref Frames
Format settings, CABAC : Yes
Format settings, ReFrames : 4 frames
Codec ID : V_MPEG4/ISO/AVC
Duration : 1 h 30 min
Bit rate : 5 362 kb/s
Width : 1 920 pixels
Height : 1 080 pixels
Display aspect ratio : 16:9
Frame rate mode : Constant
Frame rate : 23.976 FPS
Color space : YUV
Chroma subsampling : 4:2:0
Bit depth : 8 bits
Scan type : Progressive
Bits/(Pixel*Frame) : 0.108
Stream size : 3.37 GiB (90%)
Default : Yes
Forced : No
Color range : Limited
Color primaries : BT.709
Transfer characteristics : BT.709
Matrix coefficients : BT.709

Audio #1
ID : 2
Format : AC-3
Format/Info : Audio Coding 3
Commercial name : Dolby Digital
Codec ID : A_AC3
Duration : 1 h 30 min
Bit rate mode : Constant
Bit rate : 192 kb/s
Channel(s) : 2 channels
Channel layout : L R
Sampling rate : 48.0 kHz
Frame rate : 31.250 FPS (1536 SPF)
Bit depth : 16 bits
Compression mode : Lossy
Delay relative to video : -41 ms
Stream size : 124 MiB (3%)
Title : Inter channel (MNO)
Language : Ukrainian
Service kind : Complete Main
Default : Yes
Forced : No

Audio #2
ID : 3
Format : AC-3
Format/Info : Audio Coding 3
Commercial name : Dolby Digital
Codec ID : A_AC3
Duration : 1 h 30 min
Bit rate mode : Constant
Bit rate : 384 kb/s
Channel(s) : 6 channels
Channel layout : L R C LFE Ls Rs
Sampling rate : 48.0 kHz
Frame rate : 31.250 FPS (1536 SPF)
Bit depth : 16 bits
Compression mode : Lossy
Delay relative to video : -41 ms
Stream size : 247 MiB (6%)
Title : original
Language : English
Service kind : Complete Main
Default : No
Forced : No
Скріншоти







Джерело:


 Трекер:    Зареєстрований   

Завантажити / скачати фільм українською



відео для новачків



 Зареєстрований:   2019-04-21 18:59
 Розмір:   3.74 GB 
 Оцінка фільму:   10/10 (Голосів: 2)
   
Інші релізи
   Змова / Conspiracy (2008) Ukr/Eng Arsenfpu  2 / 0   1.51 GB   2019-05-04 21:25 
   Тринадцять: Змова / XIII: The Conspiracy (2008) ostipko  3 / 0   2.13 GB   2014-02-01 15:33 
Ваш часовий пояс: GMT + 2 Години

Нова тема   Відповісти