Як приборкати дракона 3: Прихований світ / How to Train Your Dragon: The Hidden World (2019) UHD Remux 2160p 4K HDR H.265 Ukr/Eng | Sub Eng

Нові коментарі

Нова тема   Відповісти
Автор Повідомлення
Argentum 
Поважний учасник


З нами з: 25.09.11
Востаннє: 21.08.19
Повідомлень: 206

2019-04-20 15:04  
Як приборкати дракона 3: Прихований світ / How to Train Your Dragon: The Hidden World (2019) UHD Remux 2160p 4K HDR H.265 Ukr/Eng | Sub Eng

Як приборкати дракона 3: Прихований світ / How to Train Your Dragon: The Hidden World (2019) UHD Remux 2160p 4K HDR H.265 Ukr/Eng | Sub Eng


Жанр: анімація, пригодницький, фентезі, сімейний
Країна: США



Кінокомпанія: DreamWorks Animation, Universal Pictures
Режисер: Дін ДеБлуа
Актори: Джей Барушель, Америка Феррера, Фарід Мюррей Абрахам, Кейт Бланшетт, Джерард Батлер, Крейг Фергюсон, Джона Гілл, Крістофер Мінц-Пласс, Крістен Віг, Кіт Герінгтон та інші.

Сюжет:
Нові пригоди давніх друзів – Гикавки та Беззубика. Селищу, де дракони та вікінги живуть у мирі та спокої, загрожує жорстокий ворог. Щоб захистити свій дім, хоробрий правитель Гикавка та його вірний дракон вирушають у подорож до прихованого міфічного світу.


Тривалість: 01:44:06
Якість: 4K UltraHD Remux 2160p
Відео:
кодек: H.265 (HEVC)
розмір кадру: 3840 х 2160
бітрейт: 75,3 Мб/с
бітова глибина: 10 біт
кольоровий простір: BT.2020 (HDR)

Увага! Перед завантаженням переконайтесь, що ваш пристрій відтворення (та/або ПЗ) підтримує H.265 (HEVC)

Аудіо # 1:
мова: українська
переклад: професійний дубльований | студія LeDoyen
кодек: 2.0 (stereo)
бітрейт: 192 кб/с

Аудіо # 2:
мова: англійська
переклад: оригінал
кодек: 5.1
бітрейт: 1509 кб/с

Субтитри 2-3: (Full, SDH)
мова: англійська
тип: програмні (м'які)
формат: *.srt
Info
General
Unique ID : 82591006850409032305052989432280088462 (0x3E227306D584A5F56DB28AF5EB0B7F8E)
Complete name : How to Train Your Dragon The Hidden World (2019) [Ukr, Eng] Remux HDR 2160p [Hurtom].
Format :
Format version : Version 4
File size : 56.0 GiB
Duration : 1 h 44 min
Overall bit rate : 77.0 Mb/s
Movie name : How to Train Your Dragon The Hidden World (2019) [Ukr, Eng] Remux HDR 2160p
Encoded date : UTC 2019-04-20 09:46:31
Writing application : v33.1.0 ('Primrose') 64-bit
Writing library : libebml v1.3.7 + v1.5.0
Attachments : ihhDxgSntFlhShaSRKbgxgw4r7F.jpg

Video
ID : 1
Format : HEVC
Format/Info : High Efficiency Video Coding
Commercial name : HDR10
Format profile : Main [email protected]@High
Codec ID : V_MPEGH/ISO/HEVC
Duration : 1 h 44 min
Bit rate : 75.3 Mb/s
Width : 3 840 pixels
Height : 2 160 pixels
Display aspect ratio : 16:9
Frame rate mode : Constant
Frame rate : 23.976 (24000/1001) FPS
Color space : YUV
Chroma subsampling : 4:2:0 (Type 2)
Bit depth : 10 bits
Bits/(Pixel*Frame) : 0.379
Stream size : 54.8 GiB (98%)
Title : HEVC 3840*2160 HDR10 @ 75.3 Mbps
Writing library : ATEME Titan File 3.9.0 (4.9.0.0)
Language : Multiple languages
Default : Yes
Forced : Yes
Color range : Limited
Color primaries : BT.2020
Transfer characteristics : PQ
Matrix coefficients : BT.2020 non-constant
Mastering display color primaries : Display P3
Mastering display luminance : min: 0.0050 cd/m2, max: 1000 cd/m2
Maximum Content Light Level : 845 cd/m2
Maximum Frame-Average Light Level : 196 cd/m2

Audio #1
ID : 2
Format : AC-3
Format/Info : Audio Coding 3
Commercial name : Dolby Digital
Codec ID : A_AC3
Duration : 1 h 44 min
Bit rate mode : Constant
Bit rate : 192 kb/s
Channel(s) : 2 channels
Channel layout : L R
Sampling rate : 48.0 kHz
Frame rate : 31.250 FPS (1536 SPF)
Bit depth : 16 bits
Compression mode : Lossy
Delay relative to video : -1 ms
Stream size : 143 MiB (0%)
Title : 2.0 @ 192 Kbps
Language : Ukrainian
Service kind : Complete Main
Default : Yes
Forced : Yes

Audio #2
ID : 3
Format :
Format/Info : Digital Theater Systems
Codec ID : A_DTS
Duration : 1 h 44 min
Bit rate mode : Constant
Bit rate : 1 509 kb/s
Channel(s) : 6 channels
Channel layout : C L R Ls Rs LFE
Sampling rate : 48.0 kHz
Frame rate : 93.750 FPS (512 SPF)
Bit depth : 24 bits
Compression mode : Lossy
Delay relative to video : -1 ms
Stream size : 1.10 GiB (2%)
Title : 5.1 @ 1509 Kbps
Language : English
Default : No
Forced : No

Text #1
ID : 4
Format : UTF-8
Codec ID : S_TEXT/UTF8
Codec ID/Info : UTF-8 Plain Text
Duration : 1 h 32 min
Bit rate : 47 b/s
Count of elements : 1100
Stream size : 32.2 KiB (0%)
Title : Full
Language : English
Default : No
Forced : No

Text #2
ID : 5
Format : UTF-8
Codec ID : S_TEXT/UTF8
Codec ID/Info : UTF-8 Plain Text
Duration : 1 h 32 min
Bit rate : 59 b/s
Count of elements : 1542
Stream size : 40.2 KiB (0%)
Title : SDH
Language : English
Default : No
Forced : No

Menu
00:00:00.000 : :Chapter 1
00:05:13.521 : :Chapter 2
00:10:26.834 : :Chapter 3
00:14:52.224 : :Chapter 4
00:20:33.065 : :Chapter 5
00:24:38.685 : :Chapter 6
00:28:40.885 : :Chapter 7
00:31:10.118 : :Chapter 8
00:37:35.127 : :Chapter 9
00:44:38.550 : :Chapter 10
00:47:53.579 : :Chapter 11
00:53:11.021 : :Chapter 12
00:57:36.286 : :Chapter 13
01:01:25.056 : :Chapter 14
01:08:55.923 : :Chapter 15
01:14:17.703 : :Chapter 16
01:19:31.141 : :Chapter 17
01:23:23.289 : :Chapter 18
01:28:24.716 : :Chapter 19
01:33:53.377 : :Chapter 20
Скріншоти







Джерело:

За аудіодоріжку #1 подяка пану winjer

Особиста оцінка: 8 - мені сподобалося

Не забуваємо тиснути "Дякую"!


Золотий реліз (завантажене не впливає на рейтинг)
 Трекер:    Зареєстрований   

Завантажити / скачати мультфільм українською



відео для новачків



 Зареєстрований:   2019-04-20 15:17
 Розмір:   56.02 GB 
 Оцінка мультфільму:   9.4/10 (Голосів: 14)
   
Інші релізи
bot 
робот


З нами з: 30.09.07
Востаннє: 26.05.05
Повідомлень: 21790

2019-04-20 15:04  
Тему перенесено з Фільми в HD до форуму Анонси релізів


Argentum

bot 
робот


З нами з: 30.09.07
Востаннє: 26.05.05
Повідомлень: 21790

2019-04-20 15:17  
Тему перенесено з Анонси релізів до форуму Мультфільми в HD


Argentum

punkvalera 
Новенький


З нами з: 05.12.15
Востаннє: 06.08.19
Повідомлень: 3

2019-04-20 18:12  
встаньте будь ласка на роздачу
Argentum 
Поважний учасник


З нами з: 25.09.11
Востаннє: 21.08.19
Повідомлень: 206

2019-04-20 18:33  
punkvalera написано:
встаньте будь ласка на роздачу

Я на роздачі

JTXua 
Новенький


З нами з: 04.01.10
Востаннє: 21.08.19
Повідомлень: 11

2019-04-27 20:24  
Скажіть будь ласка,чи варто очікувати нормального звуку? 2.0 ну просто знущання над акустикою 7.1 )
sandman 
VIP


З нами з: 12.08.12
Востаннє: 21.08.19
Повідомлень: 273

2019-04-28 10:47  
JTXua 7.1 українських доріжок, взагалі, на привеликий жаль, ніхто не робить. 5.1 буде (можливо, але не факт) коли вийде офіційний блюр СЕЕ (для центрально-східної Європи)
JTXua 
Новенький


З нами з: 04.01.10
Востаннє: 21.08.19
Повідомлень: 11

2019-04-28 21:16  
ну я про 5.1 і говорив Happy дружина хоче подивитись,а я її все відговорюю,кажу що давай почекаємо хорошого звуку
Ваш часовий пояс: GMT + 2 Години

Нова тема   Відповісти