Я знову тебе кохаю (Сезон 2, серії 1-9 iз ...) / Ask yeniden (2019) 720p

Нові коментарі

Нова тема   Відповісти
Останній раз роздавалося ak1980 (2020-12-02)
Автор Повідомлення
ak1980 
Новенький


З нами з: 06.07.14
Востаннє: 28.11.20
Повідомлень: 12

2019-04-20 09:52  
Я знову тебе кохаю (Сезон 2, серії 1-9 iз ...) / Ask yeniden (2019) 720p




Жанр: Лірична комедія, мелодрама
Країна: Туреччина

Рік: 2019
Серій: 59

Виробництво: Süreç film
Режисер: Ерсой Гюлей
В ролях: Бугра Гюльсой, Озге Озпірінджі, Мерт Онер, Джан Сипахи, Су Бурдж Язгі Джошкун, Орхан Алка, Тамер Левент, Тюлин Орал та ін.
Прем'єра: 1+1

Сюжет:
Турецька романтична комедія «Я знову тебе кохаю» розповісти цікаву історію кохання двох молодих людей Зейнеп (Горба Гюльсой) і Фатіха (Озге Озпірінджи). Двоє закоханих заради своєї любові вирішують покинути Туреччину і переїхати в США, нічого не сказавши своїм рідним. Молодята з упевненістю дивляться в майбутнє і хочуть бути разом до кінця віку, на світ з'являється плід їхнього кохання, але з часом все змінюється. Згодом почуття хлопця і дівчини холонуть, і Зейнеп хоче повернутися додому, забравши маленьку дитину з собою. Однак у долі свої плани на Зейнеп і Фатіха - через деякий час вони знову зустрічаються і розуміють, що не можуть жити один без одного...

Тривалість: 1 серія: ~ 01:59:50
Якість: AVC

Відео:
кодек:
розмір кадру: 1280 х 720
бітрейт: ~ 970 кб/с

Аудіо:
мова: українська
переклад: дубляж
кодек: 2.0
бітрейт: 128 кб/с
"Info:"

General
Complete name : E:\Ya_Znovu_Tebe_Kochaju_(2_sezon)\Я знову тебе кохаю - 20 серія.mp4
Format : MPEG-4
Format profile : Base Media
Codec ID : isom (isom)
File size : 943 MiB
Duration : 1 h 59 min
Overall bit rate mode : Variable
Overall bit rate : 1 102 kb/s
Encoded date : UTC 2018-06-07 12:48:06
Tagged date : UTC 2018-06-07 12:48:06

Video
ID : 1
Format : AVC
Format/Info : Advanced Video Codec
Format profile : [email protected]
Format settings : CABAC / 4 Ref Frames
Format settings, CABAC : Yes
Format settings, RefFrames : 4 frames
Format settings, GOP : M=4, N=24
Codec ID : avc1
Codec ID/Info : Advanced Video Coding
Duration : 1 h 59 min
Bit rate : 970 kb/s
Maximum bit rate : 4 824 kb/s
Width : 1 280 pixels
Height : 720 pixels
Display aspect ratio : 16:9
Frame rate mode : Constant
Frame rate : 25.000 FPS
Color space : YUV
Chroma subsampling : 4:2:0
Bit depth : 8 bits
Scan type : Progressive
Bits/(Pixel*Frame) : 0.042
Stream size : 830 MiB (88%)
Writing library : core 132
Encoding settings : cabac=1 / ref=1 / deblock=1:0:0 / analyse=0x1:0x1 / me=dia / subme=1 / psy=1 / psy_rd=1.00:0.00 / mixed_ref=0 / me_range=16 / chroma_me=1 / trellis=0 / 8x8dct=0 / cqm=0 / deadzone=21,11 / fast_pskip=1 / chroma_qp_offset=0 / threads=12 / lookahead_threads=2 / sliced_threads=0 / nr=0 / decimate=1 / interlaced=0 / bluray_compat=0 / constrained_intra=0 / bframes=3 / b_pyramid=2 / b_adapt=1 / b_bias=0 / direct=1 / weightb=1 / open_gop=0 / weightp=1 / keyint=24 / keyint_min=2 / scenecut=40 / intra_refresh=0 / rc=crf / mbtree=0 / crf=27.0 / qcomp=0.60 / qpmin=0 / qpmax=69 / qpstep=4 / ip_ratio=1.40 / pb_ratio=1.30 / aq=1:1.00
Tagged date : UTC 2018-06-07 12:48:08

Audio
ID : 2
Format :
Format/Info : Advanced Audio Codec
Format profile : LC
Codec ID : mp4a-40-2
Duration : 1 h 59 min
Bit rate mode : Variable
Bit rate : 128 kb/s
Maximum bit rate : 130 kb/s
Channel(s) : 2 channels
Channel positions : Front: L R
Sampling rate : 48.0 kHz
Frame rate : 46.875 FPS (1024 SPF)
Compression mode : Lossy
Stream size : 110 MiB (12%)
Language : Ukrainian
Encoded date : UTC 2018-06-07 12:48:07
Tagged date : UTC 2018-06-07 12:48:08
"Скріншоти:"



Бронзовий реліз (на рейтинг впливає 75% завантаженого)
 Трекер:    Зареєстрований   

Завантажити / скачати серіал українською



відео для новачків



 Зареєстрований:   2019-04-20 09:52
 Розмір:   8.49 GB 
 Оцінка серіалу:   -/10 (Голосів: 0)
   
11FrYkT 
Модератор відео


З нами з: 20.02.11
Востаннє: 04.12.20
Повідомлень: 7051

2019-04-21 09:18  
ak1980 , скріншоти повинні бути у форматі пнг
Ваш часовий пояс: GMT + 2 Години

Нова тема   Відповісти