Боббі і Білл / Boule et Bill (Сезон 1, серій 8 з 52) (2016) 1080p Ukr/Eng

Нові коментарі

Нова тема   Відповісти
Автор Повідомлення
sergiyko.5 
Забанено
Забанено


З нами з: 25.02.16
Востаннє: 29.10.20
Повідомлень: 3648

2019-04-18 19:43  
Боббі і Білл / Boule et Bill (Сезон 1, серій 8 з 52) (2016) 1080p Ukr/Eng

Боббі і Білл / Boule et Bill (Сезон 1, серій 8 з 52) (2016) 1080p Ukr/Eng

Жанр: пригоди, комедія
Країна: Франція
Режисер: Філіп Відаль

Сюжет:
Комедійний, дитячий мультсеріал заснований на відомих всьому світу коміксах, в якому розповідається про пригоди нерозлучних друзів: хлопчика Боббі, його пса Білла і черепахи Керолайн. Боббі і його друзі дуже нпосидючі - вони і хвилини не можуть всидіти на місці без пригод. Варто лише трохи пофантазувати і різного роду історії самі приходять в їх життя. Вони знають сто способів повеселитися і наповнити день посмішками. З такими веселими друзями, завжди треба бути готовими до будь-яких авантюр!




Тривалість: 1 серія: 11:55 (цілком серій: 8 з 52)
Якість:

Відео: кодек: розмір кадру: 1920 х 1080 бітрейт: 1800 кб/с
Аудіо # 1: мова: українська переклад: псевдодубляж кодек: 2.0 бітрейт: 192 кб/с
Озвучення:
Аудіо # 2: мова: англійська переклад: професійний дубльований кодек: 2.0 бітрейт: 128 кб/с
Перелік серій
13 Mr Golden Nose
14 The Сontest
15 The Photo Competition
16 Bill Superstar
17 Dog Deluxe
18 3,2,1 Blast Off
19 Fast Food
20 The Gift
Про файл:
General
Unique ID : 54200952971676492850532309209186570142 (0x28C6B94D338534FF40DEB4008DC40F9E)
Complete name : G:\Torrents2\MULT\MuSERIAL\Bobby and Bill S01 1080p \S01E13.Mr Golden Nose.1080p..
Format :
Format version : Version 4
File size : 184 MiB
Duration : 11 min 55 s
Overall bit rate : 2 158 kb/s
Movie name : Bobby and Bill S01 1080p by sergiyko
Encoded date : UTC 2019-04-18 15:53:39
Writing application : v32.0.0 ('Astral Progressions') 64-bit
Writing library : libebml v1.3.7 + v1.5.0

Video
ID : 1
Format : AVC
Format/Info : Advanced Video Codec
Format profile : [email protected]
Format settings : CABAC / 3 Ref Frames
Format settings, CABAC : Yes
Format settings, ReFrames : 3 frames
Codec ID : V_MPEG4/ISO/AVC
Duration : 11 min 54 s
Bit rate : 1 838 kb/s
Width : 1 920 pixels
Height : 1 080 pixels
Display aspect ratio : 16:9
Frame rate mode : Constant
Frame rate : 25.000 FPS
Color space : YUV
Chroma subsampling : 4:2:0
Bit depth : 8 bits
Scan type : Progressive
Bits/(Pixel*Frame) : 0.035
Stream size : 157 MiB (85%)
Title : S01E13.Mr Golden Nose
Language : English
Default : Yes
Forced : No
Color range : Limited
Color primaries : BT.709
Transfer characteristics : BT.709
Matrix coefficients : BT.709

Audio #1
ID : 2
Format : AC-3
Format/Info : Audio Coding 3
Commercial name : Dolby Digital
Codec ID : A_AC3
Duration : 11 min 54 s
Bit rate mode : Constant
Bit rate : 192 kb/s
Channel(s) : 2 channels
Channel layout : L R
Sampling rate : 48.0 kHz
Frame rate : 31.250 FPS (1536 SPF)
Bit depth : 16 bits
Compression mode : Lossy
Stream size : 16.4 MiB (9%)
Title : DUB | Піксель
Language : Ukrainian
Service kind : Complete Main
Default : Yes
Forced : Yes

Audio #2
ID : 3
Format : LC
Format/Info : Advanced Audio Codec Low Complexity
Codec ID : A_AAC-2
Duration : 11 min 55 s
Bit rate : 126 kb/s
Channel(s) : 2 channels
Channel layout : L R
Sampling rate : 44.1 kHz
Frame rate : 43.066 FPS (1024 SPF)
Compression mode : Lossy
Stream size : 10.7 MiB (6%)
Title : Original
Language : English
Default : No
Forced : No
Скріншоти:



Запис/синхронізація: sergiyko


 Трекер:    Зареєстрований   

Завантажити / скачати мультфільм українською



відео для новачків



 Зареєстрований:   2019-04-18 22:41
 Розмір:   1.45 GB 
 Оцінка мультсеріалу:   10/10 (Голосів: 2)
   
sergiyko.5 
Забанено
Забанено


З нами з: 25.02.16
Востаннє: 29.10.20
Повідомлень: 3648

2019-04-18 22:47  

11FrYkT 
Модератор відео


З нами з: 20.02.11
Востаннє: 23.04.21
Повідомлень: 7153

2019-04-19 13:50  
sergiyko.5 написано:
удіо # 2: мова: англійська переклад: професійний дубльований кодек: 2.0 бітрейт: 128 кб/с

згідно правил заборонена, заберіть з подальшим перемуксовуванням

Ваш часовий пояс: GMT + 2 Години

Нова тема   Відповісти