Влада / Vice (2018) 1080p Ukr/Eng | Sub Eng

Нові коментарі

Нова тема   Відповісти
Автор Повідомлення
antik_2008 
Релізер і модератор відео


З нами з: 20.10.08
Востаннє: 21.07.19
Повідомлень: 2145

2019-04-18 13:51  
Влада / Vice (2018) 1080p Ukr/Eng | Sub Eng

Влада / Vice (2018) 1080p Ukr/Eng | Sub Eng
Альтернативний постер:



Жанр: біографія, драма, комедія
Країна: США



Кінокомпанія: Gary Sanchez Productions, Annapurna Pictures, Plan B Entertainment
Режисер: Адам МакКей
Актори: Крістіан Бейл, Емі Адамс, Стів Карелл, Сем Роквелл, Елісон Пілл, Едді Марсан, Джастін Кірк, Ліза Ґей Гемілтон, Тайлер Перрі, Джессі Племонс

Сюжет:
Це історія одного чоловіка, який змінив цілий світ. Будучи не найпомітнішою фігурою, він зумів стати одним із найвпливовіших людей на нашій планеті. Його звуть Дік Чейні. У нього прекрасний дар переконання, відмінне ораторське мистецтво та живий, геніальний розум. Цей чоловік міг домогтися всього, чого хотів – цього і домігся, а може й більшого. Коли Президент США Джордж Буш молодший запропонував Діку посаду 46-го віце-президента країни, містер Чейні додав тільки кілька своїх умов – він уточнив, що буде під його контролем (армія, зовнішня політика, енергетика, державний апарат). Саме завдяки цьому рішенню та багатьом іншим успішним діям Дік Чейні став найуспішнішим віце-президентом США.


Тривалість: 02:12:27
Якість: 1080p
Відео:
кодек:
розмір кадру: 1920x804
бітрейт: 18 Mб/с

Аудіо # 1:
мова: українська
переклад: професійний дубльований | Cinema Sound Production
кодек: 2.0
бітрейт: 192 кб/с
Інформація про дубляж
Режисер дубляжу: Аліса Гур'єва
Звукорежисер: Наталія Штаненко
Звукорежисер перезапису: Володимир Третьяков та Фарід Мбайдін
Ролі дублювали: Роман Чорний, Дмитро Гаврилов, Катерина Брайковська, Михайло Войчук, Андрій Твердак, Олег Лепенець та інші.

Фільм дубльовано студією Cinema Sound Production на замовлення компанії Вольга Україна.
Аудіо # 2:
мова: англійська
переклад: оригінал
кодек: 5.1
бітрейт: 1509 кб/с

Субтитри (Full):
мова: англійська
тип: програмні (м'які)
формат: *.srt
Info
Код:
General
Complete name                            : Vice (2018) 1080p [UKR_ENG].
Format                                   :
Format version                           : Version 4
File size                                : 18.2 GiB
Duration                                 : 2 h 12 min
Overall bit rate                         : 19.7 Mb/s
Movie name                               : Vice (2018) 1080p [UKR_ENG]
Encoded date                             : UTC 2019-04-18 10:30:12
Writing application                      : v30.1.0 ('Forever And More') 64-bit
Writing library                          : libebml v1.3.6 + v1.4.9

Video
ID                                       : 1
Format                                   : AVC
Format/Info                              : Advanced Video Codec
Format profile                           : [email protected]
Format settings                          : CABAC / 4 Ref Frames
Format settings, CABAC                   : Yes
Format settings, RefFrames               : 4 frames
Codec ID                                 : V_MPEG4/ISO/AVC
Duration                                 : 2 h 12 min
Bit rate                                 : 18.0 Mb/s
Width                                    : 1 920 pixels
Height                                   : 804 pixels
Display aspect ratio                     : 2.40:1
Frame rate mode                          : Constant
Frame rate                               : 23.976 (24000/1001) FPS
Color space                              : YUV
Chroma subsampling                       : 4:2:0
Bit depth                                : 8 bits
Scan type                                : Progressive
Bits/(Pixel*Frame)                       : 0.486
Stream size                              : 16.6 GiB (91%)
Writing library                          : core 155 r2867+74 66b5600 t_mod_Custom_2 [[email protected] X86_64]
Encoding settings                        : cabac=1 / ref=4 / deblock=1:-3:-3 / analyse=0x3:0x133 / me=umh / subme=10 / psy=1 / fade_compensate=0.00 / psy_rd=0.95:0.10 / mixed_ref=1 / me_range=48 / chroma_me=1 / trellis=2 / 8x8dct=1 / cqm=0 / deadzone=21,11 / fast_pskip=0 / chroma_qp_offset=-4 / threads=18 / lookahead_threads=3 / sliced_threads=0 / nr=0 / decimate=1 / interlaced=0 / bluray_compat=0 / constrained_intra=0 / fgo=0 / bframes=9 / b_pyramid=2 / b_adapt=2 / b_bias=0 / direct=3 / weightb=1 / open_gop=0 / weightp=2 / keyint=250 / keyint_min=23 / scenecut=40 / intra_refresh=0 / rc_lookahead=30 / rc=2pass / mbtree=0 / bitrate=18000 / ratetol=1.0 / qcomp=0.70 / qpmin=0:0:0 / qpmax=69:69:69 / qpstep=4 / cplxblur=20.0 / qblur=0.5 / vbv_maxrate=35000 / vbv_bufsize=35000 / nal_hrd=none / filler=0 / ip_ratio=1.40 / pb_ratio=1.30 / aq=3:1.00 / aq-sensitivity=10.00 / aq-factor=1.00:1.00:1.00 / aq2=0 / aq3=2:[0.50:0.50]:[0.50:0.50]:[0.50:0.50]:[0.50:0.50] / aq3-sensitivity=10.00 / aq3-factor=[1.00:1.00]:[1.00:1.00]:[1.00:1.00] / aq3-boundary=192:64:24
Language                                 : English
Default                                  : Yes
Forced                                   : No

Audio #1
ID                                       : 2
Format                                   : AC-3
Format/Info                              : Audio Coding 3
Commercial name                          : Dolby Digital
Codec ID                                 : A_AC3
Duration                                 : 2 h 12 min
Bit rate mode                            : Constant
Bit rate                                 : 192 kb/s
Channel(s)                               : 2 channels
Channel layout                           : L R
Sampling rate                            : 48.0 kHz
Frame rate                               : 31.250 FPS (1536 SPF)
Bit depth                                : 16 bits
Compression mode                         : Lossy
Stream size                              : 182 MiB (1%)
Title                                    : , 2 ch, 192 Кбт/с
Language                                 : Ukrainian
Service kind                             : Complete Main
Default                                  : Yes
Forced                                   : No

Audio #2
ID                                       : 3
Format                                   :
Format/Info                              : Digital Theater Systems
Codec ID                                 : A_DTS
Duration                                 : 2 h 12 min
Bit rate mode                            : Constant
Bit rate                                 : 1 509 kb/s
Channel(s)                               : 6 channels
Channel layout                           : C L R Ls Rs LFE
Sampling rate                            : 48.0 kHz
Frame rate                               : 93.750 FPS (512 SPF)
Bit depth                                : 24 bits
Compression mode                         : Lossy
Stream size                              : 1.40 GiB (8%)
Title                                    : , 6 ch, 1509 Кбт/с
Language                                 : English
Default                                  : No
Forced                                   : No

Text
ID                                       : 4
Format                                   : UTF-8
Codec ID                                 : S_TEXT/UTF8
Codec ID/Info                            : UTF-8 Plain Text
Duration                                 : 2 h 10 min
Bit rate                                 : 78 b/s
Count of elements                        : 2320
Stream size                              : 75.1 KiB (0%)
Title                                    : Full
Language                                 : English
Default                                  : No
Forced                                   : No
Скріншоти




Джерело: &
Особиста оцінка: 6 - третій сорт - не брак


 Трекер:    Зареєстрований   

Завантажити / скачати фільм українською



відео для новачків



 Зареєстрований:   2019-04-18 13:51
 Розмір:   18.22 GB 
 Оцінка фільму:   8.7/10 (Голосів: 22)
   
Інші релізи
   Влада / Vice (2018) Remux 1080p Ukr/Eng | Sub Eng staf777  11 / 0   31.08 GB   2019-04-19 22:04 
   Влада / Vice (2018) AVC Ukr/Eng | Sub Eng 11FrYkT  15 / 0   2.18 GB   2019-04-19 17:31 
   Влада / Vice (2018) 720p Ukr/Eng | Sub Eng 11FrYkT  30 / 4   4.16 GB   2019-04-18 20:09 
   Влада / Vice (2018) Electroz  19 / 3   1.67 GB   2019-04-18 15:29 
   Влада / Vice (2018) Ukr/Eng antik_2008  13 / 0   2.18 GB   2019-04-18 13:51 
sandman 
VIP


З нами з: 12.08.12
Востаннє: 20.07.19
Повідомлень: 272

2019-04-19 11:18  
супер, дуже чекав цього фільму! але ще трішки потерплю до ремукса Happy
LEQI_tt 
Новенький


З нами з: 20.04.17
Востаннє: 20.07.19
Повідомлень: 4

2019-04-21 21:43  
Класний фільм!
ільки я не зрозумів чому в середині фільму йдуть титри?

don pedro 
Попереджень: 1
Попереджень: 1 


З нами з: 29.06.11
Востаннє: 21.07.19
Повідомлень: 14034

2019-04-21 22:55  
LEQI_tt
А це режисер показав, що якби не дзвінок Буша все могло б статись інакше, і фільм можна було б завершити значно швидше, на веселій сімейній ноті. Такий жарт.

DimitriosXO 
Новенький


З нами з: 06.07.17
Востаннє: 15.07.19
Повідомлень: 8

2019-04-29 23:13  
Нащо такий бітрейт, не розумію.
Здається вдвоє менший не погіршив би якість ніскілечки

Ваш часовий пояс: GMT + 2 Години

Нова тема   Відповісти