Гра престолів (Сезон 8, серія 1) / Game of Thrones (Season 8, Episode 1) (2019) 720p Ukr/Eng | Sub Eng

Нові коментарі

Нова тема   Відповісти
Автор Повідомлення
igor911 
Відео Гуртом
Відео Гуртом


З нами з: 18.01.08
Востаннє: 20.04.19
Повідомлень: 12310

2019-04-17 08:15  
AVI | AVC | 1080p
Гра престолів (Сезон 8, серія 1) / Game of Thrones (Season 8, Episode 1) (2019) 720p Ukr/Eng | Sub Eng



Жанр: пригодницький, драма, фентезі
Країна: США



Кінокомпанія: Home Box Office (HBO), Television 360, Grok! Studio
Режисер: Девід Беніофф / David Benioff, Ден Вайс / D.B. Weiss
Актори: Пітер Дінклейдж / Peter Dinklage, Ніколай Костер-Валдау / Nikolaj Coster-Waldau, Ліна Гіді / Lena Headey, Кіт Герінґтон / Kit Harington, Емілія Кларк / Emilia Clarke, Ліам Каннінґем / Liam Cunningham, Софі Тернер / Sophie Turner та інші

Сюжет:
Останній сезон "Гри престолів" починається у Вінтерфелі, куди прибувають Дейнеріс і її воїни, готові захопити Залізний престол. З півночі насувається армія мертвих, яку очолює Король ночі. Якщо люди не зможуть об'єднатись, то настане вічна зима.


Перекладено та озвучено студією НеЗупиняйПродакшн на замовлення Hurtom.com


Тривалість: 1 серія: ~55 хв. (цілком серій: 6)
Перелік серій
1. Winterfell
Якість: 720p [Amazon]
Відео:
кодек:
розмір кадру: 1280x720
бітрейт: 3031 кб/с

Аудіо # 1:
мова: українська
переклад: професійний багатоголосий закадровий
кодек: 5.1
бітрейт: 640 кб/с

Озвучено студією НеЗупиняйПродакшн


Аудіо # 2:
мова: англійська
переклад: оригінал
кодек: 5.1
бітрейт: 640 кб/с

Субтитри:
мова: англійська
тип: програмні (м'які)
формат: *.srt
Info
Код:

Complete name               : S08E01.Game.of.Thrones.2019.Ukr.Eng..720p.[Hurtom].
Format                      :
Format version              : Version 4
File size                   : 1.66 GiB
Duration                    : 55 min 3 s
Overall bit rate            : 4 313 kb/s
Movie name                  : S08E01 Гра престолів / Game of Thrones (2019) [Ukr,Eng sub.Eng] 720p [Hurtom]
Encoded date                : UTC 2019-04-17 07:02:26
Writing application         : v33.1.0 ('Primrose') 64-bit
Writing library             : libebml v1.3.7 + v1.5.0
Cover                       : Yes
Attachments                 : cover.jpg

Video
ID                          : 1
Format                      : AVC
Format/Info                 : Advanced Video Codec
Format profile              : [email protected]
Format settings             : CABAC / 4 Ref Frames
Format settings, CABAC      : Yes
Format settings, Reference  : 4 frames
Codec ID                    : V_MPEG4/ISO/AVC
Duration                    : 55 min 3 s
Bit rate mode               : Constant
Bit rate                    : 3 031 kb/s
Nominal bit rate            : 6 000 kb/s
Width                       : 1 280 pixels
Height                      : 720 pixels
Display aspect ratio        : 16:9
Frame rate mode             : Constant
Frame rate                  : 23.976 (24000/1001) FPS
Color space                 : YUV
Chroma subsampling          : 4:2:0
Bit depth                   : 8 bits
Scan type                   : Progressive
Bits/(Pixel*Frame)          : 0.137
Stream size                 : 1.17 GiB (70%)
Title                       : S08E01 Гра престолів / Game of Thrones (2019) 720p [Amazon]
Language                    : English
Default                     : Yes
Forced                      : No
Color range                 : Limited
Color primaries             : BT.709
Transfer characteristics    : BT.709
Matrix coefficients         : BT.709

Audio #1
ID                          : 2
Format                      : AC-3
Format/Info                 : Audio Coding 3
Commercial name             : Dolby Digital
Codec ID                    : A_AC3
Duration                    : 55 min 3 s
Bit rate mode               : Constant
Bit rate                    : 640 kb/s
Channel(s)                  : 6 channels
Channel layout              : L R C LFE Ls Rs
Sampling rate               : 48.0 kHz
Frame rate                  : 31.250 FPS (1536 SPF)
Bit depth                   : 16 bits
Compression mode            : Lossy
Stream size                 : 252 MiB (15%)
Title                       : MVO [NeZupynyajProduction for Hurtom.com], 5.1 640 Kbps
Language                    : Ukrainian
Service kind                : Complete Main
Default                     : Yes
Forced                      : Yes

Audio #2
ID                          : 3
Format                      : AC-3
Format/Info                 : Audio Coding 3
Commercial name             : Dolby Digital
Codec ID                    : A_AC3
Duration                    : 55 min 3 s
Bit rate mode               : Constant
Bit rate                    : 640 kb/s
Channel(s)                  : 6 channels
Channel layout              : L R C LFE Ls Rs
Sampling rate               : 48.0 kHz
Frame rate                  : 31.250 FPS (1536 SPF)
Bit depth                   : 16 bits
Compression mode            : Lossy
Stream size                 : 252 MiB (15%)
Title                       : Original, 5.1 640 Kbps
Language                    : English
Service kind                : Complete Main
Default                     : No
Forced                      : No

Text
ID                          : 4
Format                      : UTF-8
Codec ID                    : S_TEXT/UTF8
Codec ID/Info               : UTF-8 Plain Text
Duration                    : 53 min 41 s
Bit rate                    : 45 b/s
Count of elements           : 654
Stream size                 : 17.9 KiB (0%)
Title                       : Eng SDH
Language                    : English
Default                     : No
Forced                      : No

Menu
00:00:00.000                : en:Ratings
00:00:03.944                : en:Previously On
00:01:59.944                : en:Studio Logo
00:02:05.944                : en:Opening Credits
00:03:52.944                : en:Arrival in Winterfell
00:09:46.944                : en:Fight together or die
00:12:53.944                : en:Sansa sees through the lies
00:15:36.944                : en:A tearful reunion
00:17:45.944                : en:A queen must be earned
00:22:40.944                : en:Cersei asks a favor of Bronn
00:25:25.944                : en:What is dead may never die
00:29:24.944                : en:Hold on to whatever you can
00:36:41.944                : en:A forge for dragonglass
00:39:11.944                : en:Sansa is frustrated with Jon's choice
00:41:03.944                : en:The head of House Tarly
00:44:32.944                : en:It's time for Jon to know the truth
00:48:40.944                : en:A message from the Night King
00:52:28.944                : en:An unexpected visitor
00:53:43.944                : en:End Credits


Український трейлер:


Джерело:



Авторський реліз (завантажувати можна без реєстрації)
 Трекер:    Зареєстрований   

Завантажити / скачати серіал українською



відео для новачків



 Зареєстрований:   2019-04-17 10:47
 Розмір:   1.66 GB 
 Оцінка серіалу:   9.7/10 (Голосів: 33)
   
Ваш часовий пояс: GMT + 2 Години

Нова тема   Відповісти