Конго / Congo (1995) Remux 1080p Ukr/Eng | Sub Eng

Нові коментарі

Нова тема   Відповісти
Автор Повідомлення
kryk-v.ya. 
VIP


З нами з: 14.02.14
Востаннє: 13.11.19
Повідомлень: 1676

2019-04-16 12:41  
Конго / Congo (1995) Remux 1080p Ukr/Eng | Sub Eng

Конго / Congo (1995) Remux 1080p Ukr/Eng | Sub Eng


Жанр: фантастика, бойовик, детектив, пригодницький
Країна: США



Кінокомпанія: Paramount Pictures
Режисер: Френк Маршалл
Актори: Лора Ліні, Ділан Волш, Ерні Хадсон, Тім Каррі, Грант Хеслов, Джо Дон Бейкер

Сюжет:
Їх обстрілюють тепловими ракетами, їм доводиться продиратися крізь непрохідні зарості джунглів. Але незважаючи ні на що, екпедиція триває. Чарівна горила по кличці Емі, що була частиною наукового експерименту, повертається на батьківщину, у джунглі. За нею ідуть романтичний молодий професор, самовпевнена жінка-експерт по електроніці, грубуватий провідник, ексцентричний дослідник та інші. Вони знають, що вона приведе їх не просто у свій рідний будинок, а і в загадковий край, де повинне перебувати загублене місто Зінч, багате своїми алмазними родовищами. Але... все невідоме таїть у собі смертельну небезпеку, знайшовши таємниче місто Зінч, вони ризикують втратити життя.


Тривалість: 01:48:14
Якість: Remux 1080p
Відео:
кодек:
розмір кадру: 1920 х 1080
бітрейт: 24 Мб/с

Аудіо # 1:
мова: українська
переклад: багатоголосий закадровий |
кодек: 2.0
бітрейт: 192 кб/с

Аудіо # 2:
мова: українська
переклад: багатоголосий закадровий |
кодек: 5.1
бітрейт: 448 кб/с

Аудіо # 3:
мова: англійська
переклад: оригінал
кодек: -HD MA 5.1
бітрейт: 3853 кб/с

Субтитри:
мова: англійська
тип: програмні (м'які) | SDH
формат: *.srt
Info
General
Unique ID : 129251974868482284115286999734609492051 (0x613D065E5777B6E4358BBBFD5D73B853)
Complete name : E:\Congo (1995) Remux 1080p.
Format :
Format version : Version 4 / Version 2
File size : 21.5 GiB
Duration : 1 h 48 min
Overall bit rate mode : Variable
Overall bit rate : 28.5 Mb/s
Encoded date : UTC 2019-04-16 16:18:38
Writing application : v25.0.0 ('Prog Noir') 64-bit
Writing library : libebml v1.3.6 + v1.4.9
Cover : Yes
Attachments : cover.jpg

Video
ID : 1
Format : AVC
Format/Info : Advanced Video Codec
Format profile : [email protected]
Format settings : CABAC / 2 Ref Frames
Format settings, CABAC : Yes
Format settings, ReFrames : 2 frames
Codec ID : V_MPEG4/ISO/AVC
Duration : 1 h 48 min
Bit rate mode : Variable
Bit rate : 24.0 Mb/s
Width : 1 920 pixels
Height : 1 080 pixels
Display aspect ratio : 16:9
Frame rate mode : Constant
Frame rate : 23.976 (24000/1001) FPS
Color space : YUV
Chroma subsampling : 4:2:0
Bit depth : 8 bits
Scan type : Progressive
Bits/(Pixel*Frame) : 0.482
Stream size : 18.1 GiB (84%)
Default : Yes
Forced : No

Audio #1
ID : 2
Format : AC-3
Format/Info : Audio Coding 3
Commercial name : Dolby Digital
Codec ID : A_AC3
Duration : 1 h 48 min
Bit rate mode : Constant
Bit rate : 192 kb/s
Channel(s) : 2 channels
Channel layout : L R
Sampling rate : 48.0 kHz
Frame rate : 31.250 FPS (1536 SPF)
Bit depth : 16 bits
Compression mode : Lossy
Stream size : 149 MiB (1%)
Title : MVO-ICTV, Novuy
Language : Ukrainian
Service kind : Complete Main
Default : Yes
Forced : No

Audio #2
ID : 3
Format : AC-3
Format/Info : Audio Coding 3
Commercial name : Dolby Digital
Codec ID : A_AC3
Duration : 1 h 48 min
Bit rate mode : Constant
Bit rate : 448 kb/s
Channel(s) : 6 channels
Channel layout : L R C LFE Ls Rs
Sampling rate : 48.0 kHz
Frame rate : 31.250 FPS (1536 SPF)
Bit depth : 16 bits
Compression mode : Lossy
Stream size : 347 MiB (2%)
Title : MVO-ICTV
Language : Ukrainian
Service kind : Complete Main
Default : No
Forced : No

Audio #3
ID : 4
Format : XLL
Format/Info : Digital Theater Systems
Commercial name : -HD Master Audio
Codec ID : A_DTS
Duration : 1 h 48 min
Bit rate mode : Variable
Bit rate : 3 853 kb/s
Channel(s) : 6 channels
Channel layout : C L R Ls Rs LFE
Sampling rate : 48.0 kHz
Frame rate : 93.750 FPS (512 SPF)
Bit depth : 24 bits
Compression mode : Lossless
Stream size : 2.91 GiB (14%)
Title : Original
Language : English
Default : No
Forced : No

Text
ID : 5
Format : UTF-8
Codec ID : S_TEXT/UTF8
Codec ID/Info : UTF-8 Plain Text
Duration : 1 h 46 min
Bit rate : 52 b/s
Count of elements : 1109
Stream size : 41.2 KiB (0%)
Title : US-SDH
Language : English
Default : Yes
Forced : No

Menu
00:00:00.000 : en:00:00:00.000 / en:Глава 01
00:10:21.704 : en:00:10:21.704
00:16:42.793 : en:00:16:42.793
00:23:09.805 : en:00:23:09.805
00:30:14.146 : en:00:30:14.146
00:33:52.530 : en:00:33:52.530
00:43:04.999 : en:00:43:04.999
00:49:26.338 : en:00:49:26.338
00:55:16.522 : en:00:55:16.522
01:01:46.745 : en:01:01:46.745
01:07:10.193 : en:01:07:10.193
01:14:06.525 : en:01:14:06.525
01:21:36.141 : en:01:21:36.141
01:28:49.616 : en:01:28:49.616
01:34:25.493 : en:01:34:25.493
01:40:14.091 : en:01:40:14.091
Скріншоти


Джерело: &
Особиста оцінка: 10 - без зайвих вагань рекомендую всім!

Подяка за доріжки панам robotron005, Bohdan237 та Arsenfpu .


Золотий реліз (завантажене не впливає на рейтинг)
 Трекер:    Зареєстрований   

Завантажити / скачати фільм українською



відео для новачків



 Зареєстрований:   2019-04-16 19:48
 Розмір:   21.51 GB 
 Оцінка фільму:   10/10 (Голосів: 4)
   
Інші релізи
   Конго / Congo (1995) Ukr/Eng Arsenfpu  2 / 0   1.79 GB   2018-01-16 17:25 
   Конго / Congo (1995) Ukr/Eng robotron005  2 / 0   1.31 GB   2009-05-12 14:39 
kryk-v.ya. 
VIP


З нами з: 14.02.14
Востаннє: 13.11.19
Повідомлень: 1676

2019-04-16 12:44  
є питання...залишити цей реліз в BDMV чи нехай буде вже в ?
+380954897458 
VIP


З нами з: 02.06.17
Востаннє: 13.11.19
Повідомлень: 473

2019-04-16 18:48  
kryk-v.ya.
Я за !

bot 
робот


З нами з: 30.09.07
Востаннє: 26.05.05
Повідомлень: 22464

2019-04-16 19:48  
Тему перенесено з Анонси релізів до форуму Фільми в HD


kryk-v.ya.

Ваш часовий пояс: GMT + 2 Години

Нова тема   Відповісти