Ханна (Сезон 1) / Hanna (Season 1) (2019) 720p 2xUkr/Eng | Sub Eng

Нові коментарі

Нова тема   Відповісти
Автор Повідомлення
Anonymous 







2019-04-16 00:28  
Ханна (Сезон 1) / Hanna (Season 1) (2019) 720p 2xUkr/Eng | Sub Eng

Ханна (Сезон 1) / Hanna (Season 1) (2019) 720p 2xUkr/Eng | Sub Eng


Жанр: екшн, драма
Країна: США



Кінокомпанія: Amazon Studios
Режисер: Сара Адіна, Андерс Енгстрем, Джон Джонс
Актори: Есме Крід-Майлс, Мірей Інос, Джоель Кіннаман, Ріанна Баррето, Фелісьєн Джаттнер, Халід Абдалла, Кемаал Дін-Елліс, Фалдут Шарма, Бенно Фюрманн

Сюжет:
Симпатична казка-бойовик про молоду дівчину-вбивцю, на яку полює одна з найвпливовіших розвідок світу.

Головна героїня – вісімнадцятирічна дівчина на ім’я Ханна. Усе своє життя вона зростала в ізоляції від зовнішнього світу, у дрімучих лісах Північної Польщі, під наглядом суворого дядька, колишнього спецпризначенця Еріка, який навчив дівчину правилам виживання в екстремальних умовах, навикам рукопашного бою та полюванню.

Ханна мріє дізнатись про своїх батьків, а Ерік намагається убезпечити дівчину від зовнішнього світу. Але приходить час, розкрити таємниці і Ханна змушена відчайдушно боротись за власне життя…


Тривалість: 1 серія: ~50 хв. (цілком серій: 8 з 8)
Перелік серій
1. Forest
2. Friend
3. City
4. Father
5. Town
6. Mother
7. Road
8. Utrax
Якість: AMZN
Відео:
кодек:
розмір кадру: 1280 х 720
бітрейт: 3200 - 6000 кб/с

Аудіо # 1:
мова: українська
переклад: двоголосий закадровий | Coldfilm
кодек: 2.0
бітрейт: 192 кб/с
18+ у озвученні присутні матюки (як і в оригіналі)

Аудіо # 2:
мова: українська
переклад: двоголосий закадровий | DniproFilm
кодек: 2.0
бітрейт: 192 кб/с

Аудіо # 3:
мова: англійська
переклад: оригінал
кодек: E- 5.1
бітрейт: 640 кб/с

Субтитри:
мова: англійська
тип: програмні (м'які)
формат: *.srt
Info
Complete name : G:\Hanna (S01) 720p [Ukr_Eng] [Hurtom&Coldfilm&DniproFilm]\Hanna S01E01 - Forest 720p [2xUkr_Eng] [Hurtom&Coldfilm&DniproFilm].
Format :
Format version : Version 4
File size : 1.46 GiB
Duration : 48 min 13 s
Overall bit rate : 4 320 kb/s
Encoded date : UTC 2019-04-12 08:10:58
Writing application : v27.0.0 ('Metropolis') 64-bit
Writing library : libebml v1.3.6 + v1.4.9
Cover : Yes
Attachments : cover.png

Video
ID : 1
Format : AVC
Format/Info : Advanced Video Codec
Format profile : [email protected]
Format settings : CABAC / 4 Ref Frames
Format settings, CABAC : Yes
Format settings, ReFrames : 4 frames
Codec ID : V_MPEG4/ISO/AVC
Duration : 48 min 13 s
Bit rate mode : Constant
Bit rate : 3 288 kb/s
Nominal bit rate : 6 000 kb/s
Width : 1 280 pixels
Height : 720 pixels
Display aspect ratio : 16:9
Frame rate mode : Constant
Frame rate : 23.976 (24000/1001) FPS
Color space : YUV
Chroma subsampling : 4:2:0
Bit depth : 8 bits
Scan type : Progressive
Bits/(Pixel*Frame) : 0.149
Stream size : 1.11 GiB (76%)
Language : English
Default : Yes
Forced : No
Color range : Limited
Color primaries : BT.709
Transfer characteristics : BT.709
Matrix coefficients : BT.709

Audio #1
ID : 2
Format : AC-3
Format/Info : Audio Coding 3
Commercial name : Dolby Digital
Codec ID : A_AC3
Duration : 48 min 13 s
Bit rate mode : Constant
Bit rate : 192 kb/s
Channel(s) : 2 channels
Channel layout : L R
Sampling rate : 48.0 kHz
Frame rate : 31.250 FPS (1536 SPF)
Bit depth : 16 bits
Compression mode : Lossy
Stream size : 66.2 MiB (4%)
Title : DVO - Coldfilm
Language : Ukrainian
Service kind : Complete Main
Default : Yes
Forced : No

Audio #2
ID : 3
Format : AC-3
Format/Info : Audio Coding 3
Commercial name : Dolby Digital
Codec ID : A_AC3
Duration : 48 min 13 s
Bit rate mode : Constant
Bit rate : 192 kb/s
Channel(s) : 2 channels
Channel layout : L R
Sampling rate : 48.0 kHz
Frame rate : 31.250 FPS (1536 SPF)
Bit depth : 16 bits
Compression mode : Lossy
Stream size : 66.2 MiB (4%)
Title : DVO - DniproFilm
Language : Ukrainian
Service kind : Complete Main
Default : No
Forced : No

Audio #3
ID : 4
Format : E-AC-3
Format/Info : Enhanced AC-3
Commercial name : Dolby Digital Plus
Codec ID : A_EAC3
Duration : 48 min 13 s
Bit rate mode : Constant
Bit rate : 640 kb/s
Channel(s) : 6 channels
Channel layout : L R C LFE Ls Rs
Sampling rate : 48.0 kHz
Frame rate : 31.250 FPS (1536 SPF)
Compression mode : Lossy
Stream size : 221 MiB (15%)
Language : English
Service kind : Complete Main
Default : No
Forced : No

Text
ID : 5
Format : UTF-8
Codec ID : S_TEXT/UTF8
Codec ID/Info : UTF-8 Plain Text
Duration : 47 min 26 s
Bit rate : 34 b/s
Count of elements : 560
Stream size : 12.0 KiB (0%)
Title : SDH
Language : English
Default : No
Forced : No
Скріншоти






Подяка: Стасу за другу зведену доріжку.
Джерело: & Coldfilm & DniproFilm
Особиста оцінка: 9 - давно не бачив настільки якісне кіно


Авторський реліз (завантажувати можна без реєстрації)
 Трекер:    Зареєстрований   

Завантажити / скачати серіал українською



відео для новачків



 Зареєстрований:   2019-04-16 00:28
 Розмір:   11.54 GB 
 Оцінка серіалу:   7.8/10 (Голосів: 10)
   
casper101 
VIP


З нами з: 03.12.09
Востаннє: 20.04.19
Повідомлень: 393

2019-04-16 10:43  
прийдеться дивитися два рази сезон з двома озвучками
Roman7Fedorak 
Свій


З нами з: 30.03.12
Востаннє: 20.04.19
Повідомлень: 97

2019-04-16 15:47  
оооо качаю колдфільм Happy
GoFY 
Новенький


З нами з: 18.03.19
Востаннє: 20.04.19
Повідомлень: 3

2019-04-17 15:09  
Колдфільм озвучує українською?
Anonymous 







2019-04-19 07:44  
GoFY написано:
Колдфільм

Деякі серіали.

armogun 
Попереджень: 1
Попереджень: 1 


З нами з: 04.05.13
Востаннє: 20.04.19
Повідомлень: 453

2019-04-19 12:12  
Коли Гануся буде в BD ?
antik_2008 
Релізер і модератор відео


З нами з: 20.10.08
Востаннє: 20.04.19
Повідомлень: 1949

2019-04-19 12:36  
Цікавий серіал.
Ваш часовий пояс: GMT + 2 Години

Нова тема   Відповісти