Американський йєті / Kampout (American Bigfoot) (2017) 1080p Ukr/Eng | Sub Eng

Нові коментарі

Нова тема   Відповісти
Останній раз роздавалося drop_plz (2019-12-08)
Автор Повідомлення
Anonymous 







2019-04-15 06:55  
Американський йєті / Kampout (American Bigfoot) (2017) 1080p Ukr/Eng | Sub Eng

Американський йєті / Kampout (American Bigfoot) (2017) 1080p Ukr/Eng | Sub Eng


Жанр: пригодницький
Країна: США



Кінокомпанія: Buckdog Productions
Режисер: Гленн Мартін
Актори: Бред Бейкер, Майк Бішоп, Стівен Бішоп, Джемі Бозіан, Джефф Баллок, Тодд Баллок, Кайла Коулман, Зак Гелліган, Стеффі Гроут

Сюжет:
Розлючений вбивством своєї дитини, Йєті порушує спокій в селі на півдні Огайо. Детектив Бенсон, рейнджер Томас і фахівець з Йєті Хенк намагаються зупинити міфічну істоту. Йєті хоче напасти на групу підлітків, що зупинилися в містечку під назвою Кемпаут.


Тривалість: 01:33:43
Якість: 1080p
Відео:
кодек:
розмір кадру: 1920х960
бітрейт: 7 083 кб/с

Аудіо # 1:
мова: українська
переклад: багатоголосий закадровий
кодек: 2.0
бітрейт: 192 кб/с

Аудіо # 2:
мова: англійська
переклад: оригінал
кодек: E-AC-3 2.0
бітрейт: 224 кб/с

Субтитри:
мова: англійська
тип: програмні (м'які)
формат: *.srt
Info
General
Unique ID : 251455363728218313869635584934236957473 (0xBD2C8A9DA734006DA1D6021357DCAB21)
Complete name : H:\Toloka\2019\Kampout (American Bigfoot) (2017) 1080p.
Format :
Format version : Version 4
File size : 5.01 GiB
Duration : 1 h 33 min
Overall bit rate mode : Variable
Overall bit rate : 7 651 kb/s
Encoded date : UTC 2019-04-15 04:48:43
Writing application : v6.1.0 ('Old Devil') built on Mar 4 2013 09:10:42
Writing library : libebml v1.3.0 + v1.4.0

Video
ID : 1
Format : AVC
Format/Info : Advanced Video Codec
Format profile : [email protected]
Format settings : CABAC / 4 Ref Frames
Format settings, CABAC : Yes
Format settings, RefFrames : 4 frames
Codec ID : V_MPEG4/ISO/AVC
Duration : 1 h 33 min
Bit rate mode : Variable
Bit rate : 7 083 kb/s
Maximum bit rate : 15.0 Mb/s
Width : 1 920 pixels
Height : 960 pixels
Display aspect ratio : 2.000
Frame rate mode : Constant
Frame rate : 29.970 (30000/1001) FPS
Color space : YUV
Chroma subsampling : 4:2:0
Bit depth : 8 bits
Scan type : Progressive
Bits/(Pixel*Frame) : 0.128
Stream size : 4.64 GiB (93%)
Default : Yes
Forced : No
Color range : Limited
Color primaries : BT.709
Transfer characteristics : BT.709
Matrix coefficients : BT.709
Statistics Tags Issue : v13.0.0 ('The Juggler') 64bit 2018-08-26 23:17:27 / v6.1.0 ('Old Devil') built on Mar 4 2013 09:10:42 2019-04-15 04:48:43
FromStats_BitRate : 7232152
FromStats_Duration : 01:33:43.317000000
FromStats_FrameCount : 168531
FromStats_StreamSize : 5083585475

Audio #1
ID : 2
Format : AC-3
Format/Info : Audio Coding 3
Commercial name : Dolby Digital
Codec ID : A_AC3
Duration : 1 h 33 min
Bit rate mode : Constant
Bit rate : 192 kb/s
Channel(s) : 2 channels
Channel layout : L R
Sampling rate : 48.0 kHz
Frame rate : 31.250 FPS (1536 SPF)
Bit depth : 16 bits
Compression mode : Lossy
Stream size : 129 MiB (3%)
Title : UKR (2+2)
Language : Ukrainian
Service kind : Complete Main
Default : Yes
Forced : Yes

Audio #2
ID : 3
Format : E-AC-3
Format/Info : Enhanced AC-3
Commercial name : Dolby Digital Plus
Codec ID : A_EAC3
Duration : 1 h 33 min
Bit rate mode : Constant
Bit rate : 224 kb/s
Channel(s) : 2 channels
Channel layout : L R
Sampling rate : 48.0 kHz
Frame rate : 31.250 FPS (1536 SPF)
Compression mode : Lossy
Stream size : 150 MiB (3%)
Language : English
Service kind : Complete Main
Default : No
Forced : No
Statistics Tags Issue : v13.0.0 ('The Juggler') 64bit 2018-08-26 23:17:27 / v6.1.0 ('Old Devil') built on Mar 4 2013 09:10:42 2019-04-15 04:48:43
FromStats_BitRate : 224000
FromStats_Duration : 01:33:43.264000000
FromStats_FrameCount : 175727
FromStats_StreamSize : 157451392

Text #1
ID : 4
Format : UTF-8
Codec ID : S_TEXT/UTF8
Codec ID/Info : UTF-8 Plain Text
Language : English
Default : No
Forced : No
Statistics Tags Issue : v13.0.0 ('The Juggler') 64bit 2018-08-26 23:17:27 / v6.1.0 ('Old Devil') built on Mar 4 2013 09:10:42 2019-04-15 04:48:43
FromStats_BitRate : 60
FromStats_Duration : 01:29:06.508000000
FromStats_FrameCount : 1434
FromStats_StreamSize : 40447

Text #2
ID : 5
Format : UTF-8
Codec ID : S_TEXT/UTF8
Codec ID/Info : UTF-8 Plain Text
Title : SDH
Language : English
Default : No
Forced : No
Statistics Tags Issue : v13.0.0 ('The Juggler') 64bit 2018-08-26 23:17:27 / v6.1.0 ('Old Devil') built on Mar 4 2013 09:10:42 2019-04-15 04:48:43
FromStats_BitRate : 69
FromStats_Duration : 01:31:14.870000000
FromStats_FrameCount : 1744
FromStats_StreamSize : 47758
Скріншоти





За запис звуку з ТБ дякуємо пану Bohdan237
Особиста подяка пану denixx за надану матеріальну допомогу на підтримку цього і майбутніх релізів.

Джерело:


 Трекер:    Зареєстрований   

Завантажити / скачати фільм українською



відео для новачків



 Зареєстрований:   2019-04-15 06:55
 Розмір:   5.01 GB 
 Оцінка фільму:   7.8/10 (Голосів: 4)
   
+380954897458 
VIP


З нами з: 02.06.17
Востаннє: 08.12.19
Повідомлень: 527

2019-04-15 18:59  
Я в шоці. "Американський йєті " в нас є, а "Дикої банди" Сема Пекінпа немає. Шо воно робиться???
kryk-v.ya. 
Попереджень: 1
Попереджень: 1 


З нами з: 14.02.14
Востаннє: 08.12.19
Повідомлень: 1693

2019-04-15 19:18  
+380954897458
повністтю підтримую вас, це абсурд...таке враження що телеканали озвучують все підряд тільки не "золотий фонд".

Ваш часовий пояс: GMT + 2 Години

Нова тема   Відповісти