Аватар [Розширена версія] / Avatar [Extended Edition] (2009) UHD Remux 2160p 4K HDR H.265 Ukr/Eng | Sub Eng

Нові коментарі

Нова тема   Відповісти
Автор Повідомлення
Argentum 
Поважний учасник


З нами з: 25.09.11
Востаннє: 20.04.19
Повідомлень: 188

2019-04-14 14:23  
Аватар [Розширена версія] / Avatar [Extended Edition] (2009) UHD Remux 2160p 4K HDR H.265 Ukr/Eng | Sub Eng

Аватар [Розширена версія] / Avatar [Extended Edition] (2009) UHD Remux 2160p 4K HDR H.265 Ukr/Eng | Sub Eng


Жанр: фантастика, бойовик, пригодницький, драма
Країна: США



Кінокомпанія: 20th Century Fox, Lightstorm Entertainment, RatPac-Dune Entertainment, Ingenious Film Partners
Режисер: Джеймс Кемерон
Актори: Сем Вортінгтон, Зої Салдана, Сігурні Вівер, Стівен Ленг, Мішель Родрігес, Джованні Рібізі, Джоел Мур, Діліп Рао та інші.

Сюжет:
Джейк Саллі — в минулому морпіх, прикутий до інвалідного візка. Та не дивлячись на непідвладне йому тіло, Джейк в душі як і колись — воїн. Він отримує завдання здійснити переліт у кілька світлових років на базу землян на планеті Пандора, де корпорації видобувають рідкісний мінерал, що має величезне значення для виходу Землі з енергетичної кризи. Та видобуток таких важливих для землі мінералів загрожує порушенням звичайного плину життя планети, де панує неймовірно тісний по-справжньому чудесний зв'язок місцевих жителів з природою прадавніх лісів, доступний для розуміння далеко не кожному...


Тривалість: 02:58:09
Якість: 4K UltraHD Remux 2160p (REMASTERED)
Відео:
кодек: H.265 (HEVC)
розмір кадру: 3840 х 2160
бітрейт: 64.9 Мб/с
бітова глибина: 10 біт
кольоровий простір: BT.2020 (HDR)

Увага! Перед завантаженням переконайтесь, що ваш пристрій відтворення (та/або ПЗ) підтримує H.265 (HEVC)

Аудіо # 1:
мова: українська
переклад: професійний дубльований
кодек: 5.1
бітрейт: 448 кб/с

Аудіо # 2:
мова: англійська
переклад: оригінал
кодек: 5.1
бітрейт: 1509 кб/с

Субтитри 1: (форсовані до моментів без перекладу та мову На`ві)
мова: українська
тип: програмні (м'які)
формат: *.srt

Субтитри 2-3: (форсовані, повні)
мова: англійська
тип: програмні (м'які)
формат: *.srt
Info
General
Unique ID : 97873167637120825639696229197098373577 (0x49A1AFB9E7B2C4D0288FA2C7DB89D1C9)
Complete name : Avatar [Extended Edition] (2009) [Ukr, Eng] Remux HDR 2160p [Hurtom].
Format :
Format version : Version 4
File size : 83.1 GiB
Duration : 2 h 58 min
Overall bit rate : 66.8 Mb/s
Movie name : Avatar [Extended Edition] (2009) [Ukr, Eng] Remux HDR 2160p
Encoded date : UTC 2019-04-14 20:16:34
Writing application : v33.0.0 ('A Little Bit of Madness') 64-bit
Writing library : libebml v1.3.7 + v1.5.0
Attachments : uaRusyPlXRD4w3XPbfDDbO4jXST.jpg

Video
ID : 1
Format : HEVC
Format/Info : High Efficiency Video Coding
Commercial name : HDR10
Format profile : Main [email protected]@High
Codec ID : V_MPEGH/ISO/HEVC
Duration : 2 h 58 min
Bit rate : 64.9 Mb/s
Width : 3 840 pixels
Height : 2 160 pixels
Display aspect ratio : 16:9
Frame rate mode : Constant
Frame rate : 23.976 (24000/1001) FPS
Color space : YUV
Chroma subsampling : 4:2:0
Bit depth : 10 bits
Bits/(Pixel*Frame) : 0.326
Stream size : 80.7 GiB (97%)
Title : HEVC 3840*2160 HDR10 @ 64.9 Mbps
Language : Multiple languages
Default : Yes
Forced : Yes
Color range : Limited
Color primaries : BT.2020
Transfer characteristics : PQ
Matrix coefficients : BT.2020 non-constant
Mastering display color primaries : Display P3
Mastering display luminance : min: 0.0050 cd/m2, max: 4000 cd/m2
Maximum Content Light Level : 3000 cd/m2
Maximum Frame-Average Light Level : 600 cd/m2
SEI_rbsp_stop_one_bit : Missing

Audio #1
ID : 2
Format : AC-3
Format/Info : Audio Coding 3
Commercial name : Dolby Digital
Codec ID : A_AC3
Duration : 2 h 58 min
Bit rate mode : Constant
Bit rate : 448 kb/s
Channel(s) : 6 channels
Channel layout : L R C LFE Ls Rs
Sampling rate : 48.0 kHz
Frame rate : 31.250 FPS (1536 SPF)
Bit depth : 16 bits
Compression mode : Lossy
Stream size : 571 MiB (1%)
Title : 5.1 @ 448 Kbps
Language : Ukrainian
Service kind : Complete Main
Default : Yes
Forced : Yes

Audio #2
ID : 3
Format :
Format/Info : Digital Theater Systems
Codec ID : A_DTS
Duration : 2 h 58 min
Bit rate mode : Constant
Bit rate : 1 509 kb/s
Channel(s) : 6 channels
Channel layout : C L R Ls Rs LFE
Sampling rate : 48.0 kHz
Frame rate : 93.750 FPS (512 SPF)
Bit depth : 24 bits
Compression mode : Lossy
Stream size : 1.88 GiB (2%)
Title : 5.1 @ 1509 Kbps
Language : English
Default : No
Forced : No

Text #1
ID : 4
Format : UTF-8
Codec ID : S_TEXT/UTF8
Codec ID/Info : UTF-8 Plain Text
Duration : 2 h 47 min
Bit rate : 9 b/s
Count of elements : 246
Stream size : 11.8 KiB (0%)
Title : Forced
Language : Ukrainian
Default : Yes
Forced : Yes

Text #2
ID : 5
Format : UTF-8
Codec ID : S_TEXT/UTF8
Codec ID/Info : UTF-8 Plain Text
Duration : 1 h 59 min
Bit rate : 2 b/s
Count of elements : 82
Stream size : 1.92 KiB (0%)
Title : Forced
Language : English
Default : No
Forced : No

Text #3
ID : 6
Format : UTF-8
Codec ID : S_TEXT/UTF8
Codec ID/Info : UTF-8 Plain Text
Duration : 2 h 53 min
Bit rate : 40 b/s
Count of elements : 1683
Stream size : 51.1 KiB (0%)
Title : Full
Language : English
Default : No
Forced : No

Menu
00:00:00.000 : en:Lost Soul
00:05:25.575 : en:A New World
00:10:24.457 : en:You Are Not in Kansas Anymore
00:11:47.916 : en:"This Is Your Avatar Now, Jake."
00:15:59.208 : en:"This Is Why We're Here..."
00:23:54.892 : en:Meeting Trudy
00:24:40.000 : en:Colonel Quaritch
00:27:54.548 : en:First Sortie
00:30:27.617 : en:Abandoned Schoolhouse
00:32:04.464 : en:Thanator Chase
00:37:16.526 : en:A Sign
00:39:08.054 : en:Viperwolves
00:41:18.476 : en:Neytiri
00:49:16.912 : en:The Omaticaya Clan
00:55:42.214 : en:Covert Report
01:01:09.416 : en:The Hallelujah Mountains
01:07:03.227 : en:Learn Fast or Die
01:11:50.222 : en:A Mother's Pain
01:18:07.891 : en:Banshee Rookery
01:22:38.120 : en:First Flight
01:26:12.709 : en:Clan Hunt
01:27:54.436 : en:Last Shadow
01:33:00.408 : en:A Son of the Omaticaya
01:37:36.642 : en:Willow Glade Destruction
01:46:49.236 : en:Conflict Escalation
01:50:02.596 : en:"You Will Never Be One of the People!"
01:51:53.582 : en:Assault on Home Tree
01:58:30.895 : en:Aftermath
02:02:13.284 : en:Escape From Hell's Gate
02:07:51.664 : en:"There's Something We Gotta Do..."
02:09:30.554 : en:Toruk Macto
02:12:36.615 : en:"She's Real"
02:16:03.363 : en:Recuiting the Clans
02:19:31.655 : en:Preamble to Battle
02:23:59.631 : en:Battle for Pandora
02:32:13.291 : en:Fall of the Heroes
02:34:52.908 : en:Eywa
02:40:02.259 : en:Quaritch Fight
02:46:30.814 : en:"I See You"
02:46:48.498 : en:My Brother
02:48:56.793 : en:Transformation
02:51:32.073 : en:End Credits
Скріншоти







Джерело:
Особиста оцінка: 8 - мені сподобалося

За українські субтитри подяка пану Hentaihunter


Золотий реліз (завантажене не впливає на рейтинг)
 Трекер:    Зареєстрований   

Завантажити / скачати фільм українською



відео для новачків



 Зареєстрований:   2019-04-15 12:31
 Розмір:   83.15 GB 
 Оцінка фільму:   10/10 (Голосів: 14)
   
Інші релізи
   Аватар [Розширена версія] / Avatar [Extended Edition] (2009) AVC Ukr/Eng | Sub Eng staf777  23 / 0   4.93 GB   2018-08-16 19:52 
   Аватар / Avatar (2009) patriot2305  20 / 1   2.19 GB   2015-01-12 22:50 
   Аватар [Розширена версія] / Avatar [Extended Edition] (2009) 720p Ukr/Eng | Sub Ukr/Eng braveboy  20 / 1   12.17 GB   2013-05-25 08:25 
   Аватар [Розширена версія] / Avatar [Extended Edition] (2009) 1080p (60fps) Ukr/Eng | Sub Eng Drool  18 / 0   43.5 GB   2012-09-27 12:01 
   Аватар [Театральна версія] / Avatar [Theatrical Cut] (2009) 720p (60fps) Ukr/Eng | Sub Ukr/Eng Drool  2 / 0   22.02 GB   2012-09-14 14:49 
   Аватар [Розширена версія] / Avatar [Extended Edition] (2009) Ukr/Eng | Sub Eng Romario_O  10 / 1   3.47 GB   2010-12-06 22:25 
   [3D] Аватар / Avatar (2009) ua2004  0 / 0   1.98 GB   2010-08-27 19:58 
   Аватар / Avatar (2009) Blu-Ray Ukr/Eng/Rus/Pol | Sub Multi Слоник24  1 / 0   45.52 GB   2010-05-08 15:56 
   Аватар / Avatar (2009) | (1080p) Ukr Sando7  1 / 0   7.92 GB   2010-05-05 13:05 
   Аватар / Avatar (2009) 1080p Ukr/Eng Гірський Кришталь  16 / 0   11.17 GB   2010-04-30 18:47 
   Аватар / Avatar (2009) Remux 1080p Ukr/Eng | Sub Ukr/Eng prodig  7 / 0   37.75 GB   2010-04-29 02:15 
   Аватар / Avatar (2009) 720p Ukr/Eng | Sub Ukr/Rus/Eng vitalicio  2 / 0   9.3 GB   2010-04-26 03:27 
   Аватар / Avatar (2009) 720p-mini Ukr/Eng | sub Ukr/Eng Anonymous  10 / 0   2.89 GB   2010-04-25 11:35 
   Аватар / Avatar (2009) DVD9-R5 Eng/Rus/Ukr | Sub Multi SuperContik  1 / 0   7.44 GB   2010-04-14 14:50 
bot 
робот


З нами з: 30.09.07
Востаннє: 26.05.05
Повідомлень: 21218

2019-04-15 12:30  
Тему перенесено з Анонси релізів до форуму Фільми в HD


Argentum

Ваш часовий пояс: GMT + 2 Години

Нова тема   Відповісти