Лідер перегонів / The Front Runner (2018) 720p Eng | Sub Ukr/Eng

Нові коментарі

Нова тема   Відповісти
Автор Повідомлення
Anonymous 







2019-04-14 13:33  
Лідер перегонів / The Front Runner (2018) 720p Eng | Sub Ukr/Eng

Лідер перегонів / The Front Runner (2018) 720p Eng | Sub Ukr/Eng


Жанр: біографічний, драма, історичний
Країна: США, Канада



Кінокомпанія: BRON Studios, Creative Wealth Media Finance, Right of Way Films
Режисер: Джейсон Райтман / Jason Reitman
Актори: Г'ю Джекмен / Hugh Jackman, Віра Фарміґа / Vera Farmiga, Дж.К. Сіммонс / J.K. Simmons, Марк О'Браєн / Mark O'Brien, Моллі Ефраім / Molly Ephraim, Кріс Кой / Chris Coy, Алекс Карповскі / Alex Karpovsky, Джош Бренер / Josh Brener, Кейтлін Дівер / Kaitlyn Dever, Ері Грейнор / Ari Graynor, Сара Пекстон / Sara Paxton, Майк Джадж / Mike Judge, Білл Берр / Bill Burr, Тобі Хасс / Toby Huss, Томмі Дьюї / Tommy Dewey та інші.

Сюжет:
За багато років кар'єри в політиці сенатор Гері Гарт (Г'ю Джекмен) створив собі ідеальну репутацію. У 1988 році він балотується в президенти США з прогресивною програмою, зокрема в економіці. Його передвиборчий штаб працює вдень і вночі на підтримку привабливого іміджу кандидата, і попередні дані опитувань говорять, що Гері Гарт - головний кандидат на посаду президента Сполучених Штатів. Але раптом журналісти з'ясовують, що у Гарта інтрижка на стороні.


Тривалість: 01:53:31
Якість: 720p

Відео:
кодек:
розмір кадру: 1280 х 692
бітрейт: 7042 кб/с

Аудіо:
мова: англійська
переклад: оригінал
кодек: 5.1
бітрейт: 640 кб/с

Субтитри # 1:
мова: українська
тип: програмні (м'які)
формат: *.srt

Субтитри # 2-3:
мова: англійська (повні, SDH)
тип: програмні (м'які)
формат: *.srt

Збережено оригінальні розділи, як на Blu-ray
Info
Код:

Complete name               : The Front Runner (2018) [Eng sub.Ukr,Eng] 720p [Hurtom].
Format                      :
Format version              : Version 4
File size                   : 6.09 GiB
Duration                    : 1 h 53 min
Overall bit rate            : 7 684 kb/s
Movie name                  : Лідер перегонів / The Front Runner (2018) [Eng sub.Ukr,Eng] 720p [Hurtom]
Encoded date                : UTC 2019-04-14 14:42:37
Writing application         : v33.0.0 ('A Little Bit of Madness') 64-bit
Writing library             : libebml v1.3.7 + v1.5.0
Cover                       : Yes
Attachments                 : cover.jpg

Video
ID                          : 1
Format                      : AVC
Format/Info                 : Advanced Video Codec
Format profile              : [email protected]
Format settings             : CABAC / 9 Ref Frames
Format settings, CABAC      : Yes
Format settings, ReFrames   : 9 frames
Codec ID                    : V_MPEG4/ISO/AVC
Duration                    : 1 h 53 min
Bit rate                    : 7 042 kb/s
Width                       : 1 280 pixels
Height                      : 692 pixels
Display aspect ratio        : 1.85:1
Frame rate mode             : Constant
Frame rate                  : 23.976 (24000/1001) FPS
Color space                 : YUV
Chroma subsampling          : 4:2:0
Bit depth                   : 8 bits
Scan type                   : Progressive
Bits/(Pixel*Frame)          : 0.332
Stream size                 : 5.58 GiB (92%)
Title                       : Лідер перегонів / The Front Runner (2018) 720p [MTeam]
Writing library             : core 157 r2938 2b00a84 [email protected] Mod
Encoding settings           : cabac=1 / ref=9 / deblock=1:-3:-3 / analyse=0x3:0x133 / me=umh / subme=10 / psy=1 / psy_rd=1.05:0.00 / mixed_ref=1 / me_range=32 / chroma_me=1 / trellis=2 / 8x8dct=1 / cqm=0 / deadzone=21,11 / fast_pskip=0 / chroma_qp_offset=-2 / threads=12 / lookahead_threads=2 / sliced_threads=0 / nr=0 / decimate=0 / interlaced=0 / bluray_compat=0 / constrained_intra=0 / bframes=8 / b_pyramid=2 / b_adapt=2 / b_bias=0 / direct=3 / weightb=1 / open_gop=0 / weightp=2 / keyint=250 / keyint_min=24 / scenecut=40 / intra_refresh=0 / rc_lookahead=250 / rc=crf / mbtree=0 / crf=17.5 / qcomp=0.60 / qpmin=0 / qpmax=69 / qpstep=4 / vbv_maxrate=62500 / vbv_bufsize=78125 / crf_max=0.0 / nal_hrd=none / filler=0 / ip_ratio=1.30 / pb_ratio=1.20 / aq=3:0.80
Language                    : English
Default                     : Yes
Forced                      : No
Color range                 : Limited
Color primaries             : BT.709
Matrix coefficients         : BT.709

Audio
ID                          : 2
Format                      : AC-3
Format/Info                 : Audio Coding 3
Commercial name             : Dolby Digital
Codec ID                    : A_AC3
Duration                    : 1 h 53 min
Bit rate mode               : Constant
Bit rate                    : 640 kb/s
Channel(s)                  : 6 channels
Channel layout              : L R C LFE Ls Rs
Sampling rate               : 48.0 kHz
Frame rate                  : 31.250 FPS (1536 SPF)
Bit depth                   : 16 bits
Compression mode            : Lossy
Stream size                 : 520 MiB (8%)
Title                       : Original, 5.1 640 Kbps
Language                    : English
Service kind                : Complete Main
Default                     : Yes
Forced                      : No

Text #1
ID                          : 3
Format                      : UTF-8
Codec ID                    : S_TEXT/UTF8
Codec ID/Info               : UTF-8 Plain Text
Duration                    : 1 h 53 min
Bit rate                    : 124 b/s
Count of elements           : 1963
Stream size                 : 103 KiB (0%)
Title                       : Ukr full [Blu-ray EUR]
Language                    : Ukrainian
Default                     : Yes
Forced                      : Yes

Text #2
ID                          : 4
Format                      : UTF-8
Codec ID                    : S_TEXT/UTF8
Codec ID/Info               : UTF-8 Plain Text
Duration                    : 1 h 44 min
Bit rate                    : 92 b/s
Count of elements           : 1939
Stream size                 : 70.5 KiB (0%)
Title                       : Eng full
Language                    : English
Default                     : No
Forced                      : No

Text #3
ID                          : 5
Format                      : UTF-8
Codec ID                    : S_TEXT/UTF8
Codec ID/Info               : UTF-8 Plain Text
Duration                    : 1 h 47 min
Bit rate                    : 102 b/s
Count of elements           : 2212
Stream size                 : 80.5 KiB (0%)
Title                       : Eng SDH
Language                    : English
Default                     : No
Forced                      : No

Menu
00:00:00.000                : en:Chapter 01
00:08:02.607                : en:Chapter 02
00:14:56.813                : en:Chapter 03
00:19:32.505                : en:Chapter 04
00:27:22.933                : en:Chapter 05
00:34:31.945                : en:Chapter 06
00:40:30.428                : en:Chapter 07
00:45:55.962                : en:Chapter 08
00:51:07.314                : en:Chapter 09
00:58:52.112                : en:Chapter 10
01:09:05.933                : en:Chapter 11
01:15:57.762                : en:Chapter 12
01:22:31.655                : en:Chapter 13
01:29:28.738                : en:Chapter 14
01:34:40.508                : en:Chapter 15
01:41:31.919                : en:Chapter 16


Джерело: & &
У випадку появи українського озвучення чи дубляжу реліз буде оновлено


 Трекер:    Зареєстрований   

Завантажити / скачати фільм українською



відео для новачків



 Зареєстрований:   2019-04-14 18:16
 Розмір:   6.09 GB 
 Оцінка фільму:   10/10 (Голосів: 7)
 ЗАЛИШАЙТЕСЬ ЯКОМОГА ДОВШЕ НА РОЗДАЧІ! ЗАВАНТАЖИВ САМ - ДАЙ ЗАВАНТАЖИТИ ІНШИМ!
   
Інші релізи
Dark Invader 
Модератор відео


З нами з: 06.01.11
Востаннє: 18.07.19
Повідомлень: 2681

2019-04-22 17:19  
Anonymous написано:

Скріншоти
незебаром будуть

Додайте.

Anonymous 







2019-04-22 22:34  
Dark Invader написано:
Додайте.

Додав.

Ваш часовий пояс: GMT + 2 Години

Нова тема   Відповісти