Вбиваючи Єву (Сезон 2, серії 01-02) / Killing Eve (Season 2, episodes 01-02) (2019) 720р

Нові коментарі

Нова тема   Відповісти
Автор Повідомлення
dragheart 
Частий відвідувач


З нами з: 27.01.16
Востаннє: 23.04.19
Повідомлень: 37

2019-04-13 20:54  
Вбиваючи Єву (Сезон 2, серії 01-02) / Killing Eve (Season 2, episodes 01-02) (2019) 720р

Вбиваючи Єву (Сезон 2, серії 01-02) / Killing Eve (Season 2, episodes 01-02) (2019) 720р


Жанр: трилер, драма
Країна: Велика Британія



Кінокомпанія: Panorama Films, Sid Gentle Films
Режисер: Джон Іст, Деймон Томас, Гаррі Бредбір
Актори: Сандра О, Джоді Комер, Фіона Шоу, Кім Бодніа, Шон Делані, Кірбі Гауелл-Баптісте

Сюжет:
Сюжет серіалу "Вбиваючи Єву" розповідає історію дівчини Вілланель, за якою полюють представники спеціальних служб. Вона - одна з найнебезпечніших злочинниць сучасності, яка працює за наймом. Вілланель називають справжньою психопаткою, тому що вона робить невиправдано жорстокі вбивства. Розслідування у свої руки бере скромна дівчина Єва, яка навіть не підозрює, до чого її приведе ця справа. Нудне особисте життя агента спеціальної служби несподівано змінюється, коли стає зрозуміло, що попереду на неї чекає неймовірна низка подій, пов'язана з пошуками Вілланель. Однак дівчина навіть не підозрює, що психопатка знайде її раніше. Колись давно Єва займалася паперовою роботою в офісі, однак тепер їй належить прийняти нерівний бій з однією із найнебезпечніших жінок в історії криміналістики. Вілланель виявляється справжнім кошмаром для головної героїні, яка не знає, що їй робити далі. Вона готова до боротьби, але чи зможе протистояти віч-на-віч з таким жорстоким та безжальним ворогом? Другий сезон відповість на це питання.


Тривалість: 1 серія: 42:00 (цілком серій: 1/8)
Перелік серій
01. Do You Know How to Dispose of a Body?
02. Nice and Neat
03. The Hungry Caterpillar
04. Desperate Times
05. Smell Ya Later
06. I Hope You Like Missionary!
07. Wide Awake
08. You're Mine
Якість:
Відео:
кодек:
розмір кадру: 1280 х 720
бітрейт: ~ 2 000 кб/с

Аудіо:
мова: українська
переклад: багатоголосий закадровий | DubLiCat
кодек: 2.0
бітрейт: 224 кб/с



Шукайте нашу сторінку на FaceBook: DubLcat


Посилання на ТРЕЙЛЕР
Info
General
Unique ID : 338767365364959142210729193569318217769 (0xFEDC38A804AA3C28E459E2AC237E2829)
Complete name : F:\Проект\Готовые проекты\Killing.Eve.S02..720p.Ukr\Killing.Eve.S02.E01..720p.Ukr.
Format :
Format version : Version 4 / Version 2
File size : 659 MiB
Duration : 41mn 52s
Overall bit rate : 2 201 Kbps
Encoded date : UTC 2019-04-13 17:04:40
Writing application : v23.0.0 ('The Bride Said No') 64-bit
Writing library : libebml v1.3.6 + v1.4.9
DURATION : 00:41:52.544000000
NUMBER_OF_FRAMES : 78517
NUMBER_OF_BYTES : 70351232
_STATISTICS_WRITING_APP : v23.0.0 ('The Bride Said No') 64-bit
_STATISTICS_WRITING_DATE_UTC : 2019-04-13 17:04:40
_STATISTICS_TAGS : BPS DURATION NUMBER_OF_FRAMES NUMBER_OF_BYTES

Video
ID : 1
Format : AVC
Format/Info : Advanced Video Codec
Format profile : [email protected]
Format settings, CABAC : Yes
Format settings, ReFrames : 1 frame
Codec ID : V_MPEG4/ISO/AVC
Duration : 41mn 52s
Bit rate : 2 000 Kbps
Width : 1 280 pixels
Height : 720 pixels
Display aspect ratio : 16:9
Frame rate mode : Variable
Frame rate : 23.976 fps
Color space : YUV
Chroma subsampling : 4:2:0
Bit depth : 8 bits
Scan type : Progressive
Bits/(Pixel*Frame) : 0.091
Stream size : 579 MiB (88%)
Writing library : core 129
Encoding settings : cabac=1 / ref=1 / deblock=1:0:0 / analyse=0x1:0x131 / me=dia / subme=2 / psy=1 / psy_rd=1.00:0.00 / mixed_ref=0 / me_range=16 / chroma_me=1 / trellis=0 / 8x8dct=0 / cqm=0 / deadzone=21,11 / fast_pskip=1 / chroma_qp_offset=0 / threads=4 / lookahead_threads=1 / sliced_threads=0 / nr=0 / decimate=1 / interlaced=0 / bluray_compat=0 / constrained_intra=0 / bframes=0 / weightp=2 / keyint=250 / keyint_min=25 / scenecut=40 / intra_refresh=0 / rc_lookahead=40 / rc=abr / mbtree=1 / bitrate=2000 / ratetol=1.0 / qcomp=0.60 / qpmin=10 / qpmax=51 / qpstep=4 / ip_ratio=1.41 / aq=1:1.00
Default : Yes
Forced : No

Audio
ID : 2
Format : AC-3
Format/Info : Audio Coding 3
Mode extension : CM (complete main)
Codec ID : A_AC3
Duration : 41mn 52s
Bit rate mode : Constant
Bit rate : 224 Kbps
Channel(s) : 2 channels
Channel positions : Front: L R
Sampling rate : 48.0 KHz
Bit depth : 16 bits
Compression mode : Lossy
Stream size : 67.1 MiB (10%)
Language : Ukrainian
Default : Yes
Forced : No
Скріншоти




Джерело:
Особиста оцінка: 10 - без зайвих вагань рекомендую всім!


Авторський реліз (завантажувати можна без реєстрації)
 Трекер:    Зареєстрований   

Завантажити / скачати серіал українською



відео для новачків



 Зареєстрований:   2019-04-20 19:50
 Розмір:   1.3 GB 
 Оцінка серіалу:   10/10 (Голосів: 8)
   
Dark Invader 
Модератор відео


З нами з: 06.01.11
Востаннє: 23.04.19
Повідомлень: 2583

2019-04-14 22:32  
На скріншотах видно, що у відеоряді присутній логотип каналу. Скоріш за все це , а не .
Виправте.

don pedro 
Забанено
Забанено


З нами з: 29.06.11
Востаннє: 22.04.19
Повідомлень: 13523

2019-04-14 22:41  
Н-да... Убивство скаліченої дитини. Жорсткий початок.
Wowatorrent 
Поважний учасник


З нами з: 24.03.16
Востаннє: 23.04.19
Повідомлень: 163

2019-04-15 17:42  
don pedro
Навіщо спойлерити?

dragheart 
Частий відвідувач


З нами з: 27.01.16
Востаннє: 23.04.19
Повідомлень: 37

2019-04-20 19:53  
Додано 2-у серію
Ваш часовий пояс: GMT + 2 Години

Нова тема   Відповісти