Бокс | Василь Ломаченко - Ентоні Кролла | Інтер (12.04.2019) 1080p Ukr/Eng

Нові коментарі

Нова тема   Відповісти
Автор Повідомлення
sergiyko.5 
VIP


З нами з: 25.02.16
Востаннє: 26.01.20
Повідомлень: 2877

2019-04-13 13:49  
Бокс | Василь Ломаченко - Ентоні Кролла | Інтер (12.04.2019) 1080p Ukr/Eng

Бокс | Василь Ломаченко - Ентоні Кролла | Інтер (12.04.2019) 1080p Ukr/Eng

Жанр: бокс
Країна: США
Телеканал: Sky Sports

Опис:
В суботу вранці, 13 квітня, в Лос-Анджелесі на арені «Staples Center» українець Василь Ломаченко (12-1, 9 КО) захищав титули чемпіона світу за версією WBA і WBO в легкій вазі в поєдинку з британцем Ентоні Кролл (34- 6-3, 13 КО).


Якість:

Відео: кодек: розмір кадру: 1920 x 1080 бітрейт: 5630 кб/с 25,000 fps
Аудіо 1: мова: українська кодек: MP2 2.0ch бітрейт: 192 кб/с
Аудіо 2: мова: англійська кодек: 2.0ch бітрейт: 128 кб/с
Тривалість:
00:27:18
Про файл:
General
Unique ID : 110187025510583294250108168116084332852 (0x52E53FCB019860576B0B869151A2D934)
Complete name : G:\Torrents2\SPORT\Vasiliy Lomachenko vs. Anthony Crolla.2019-04-12..1080p.
Format :
Format version : Version 4
File size : 1.14 GiB
Duration : 27 min 17 s
Overall bit rate : 5 963 kb/s
Encoded date : UTC 2019-04-13 14:43:36
Writing application : v32.0.0 ('Astral Progressions') 64-bit
Writing library : libebml v1.3.7 + v1.5.0

Video
ID : 1
Format : AVC
Format/Info : Advanced Video Codec
Format profile : [email protected]
Format settings : CABAC / 1 Ref Frames
Format settings, CABAC : Yes
Format settings, ReFrames : 1 frame
Format settings, GOP : M=1, N=50
Codec ID : V_MPEG4/ISO/AVC
Duration : 27 min 17 s
Bit rate : 5 640 kb/s
Width : 1 920 pixels
Height : 1 080 pixels
Display aspect ratio : 16:9
Frame rate mode : Constant
Frame rate : 25.000 FPS
Color space : YUV
Chroma subsampling : 4:2:0
Bit depth : 8 bits
Scan type : Progressive
Bits/(Pixel*Frame) : 0.109
Stream size : 1.08 GiB (95%)
Language : English
Default : Yes
Forced : No

Audio #1
ID : 2
Format : MPEG Audio
Format version : Version 1
Format profile : Layer 2
Codec ID : A_MPEG/L2
Codec ID/Hint : MP2
Duration : 27 min 17 s
Bit rate mode : Constant
Bit rate : 192 kb/s
Channel(s) : 2 channels
Sampling rate : 48.0 kHz
Frame rate : 41.667 FPS (1152 SPF)
Compression mode : Lossy
Stream size : 37.5 MiB (3%)
Language : Ukrainian
Default : Yes
Forced : Yes

Audio #2
ID : 3
Format : LC
Format/Info : Advanced Audio Codec Low Complexity
Codec ID : A_AAC-2
Duration : 27 min 17 s
Bit rate : 128 kb/s
Channel(s) : 2 channels
Channel layout : L R
Sampling rate : 48.0 kHz
Frame rate : 46.875 FPS (1024 SPF)
Compression mode : Lossy
Stream size : 25.0 MiB (2%)
Language : English
Default : No
Forced : No
Скріншоти:



Зведення: sergiyko


Золотий реліз (завантажене не впливає на рейтинг)
 Трекер:    Зареєстрований   

Завантажити / скачати торрент



відео для новачків



 Зареєстрований:   2019-04-13 16:45
 Розмір:   1.14 GB 
 Оцінка:   10/10 (Голосів: 9)
   
arikalumoto 
Частий відвідувач


З нами з: 03.03.15
Востаннє: 25.01.20
Повідомлень: 38

2019-04-13 16:19  
Звук відстає секунд на 30 з 2-го раунду....
sergiyko.5 
VIP


З нами з: 25.02.16
Востаннє: 26.01.20
Повідомлень: 2877

2019-04-13 16:46  
Виправив.
stepan_p 
Новенький


З нами з: 03.04.11
Востаннє: 26.01.20
Повідомлень: 9

2019-04-13 19:21  
чудовий бій! купа задоволення, хто займався боксом - оцінить.
Ваш часовий пояс: GMT + 2 Години

Нова тема   Відповісти