Формула 1. Сезон 2019. Етап 3. Гран-Прі Китаю. Кваліфікація (13.04.2019) 720p Ukr/Eng

Нові коментарі

Нова тема   Відповісти
Автор Повідомлення
sergiyko.5 
Забанено
Забанено


З нами з: 25.02.16
Востаннє: 29.10.20
Повідомлень: 3651

2019-04-13 12:03  
Формула 1. Сезон 2019. Етап 3. Гран-Прі Китаю. Кваліфікація (13.04.2019) 720p Ukr/Eng

Формула 1. Сезон 2019. Етап 3. Гран-Прі Китаю. Кваліфікація (13.04.2019) 720p Ukr/Eng

Жанр: Перегони Формули 1
Країна: Китай
Телеканал: F1 TV
Коментатор: Максим Подзігун

Опис:
Кваліфікація третього етапу Гран-Прі Китаю 2019 року.


Якість:

Відео:кодек: розмір кадру: 1280 х 720 бітрейт: 4000 кб/с
Аудіо # 1: мова: українська кодек: MP2 2.0 бітрейт: 192 кб/с
Аудіо # 2: мова: англійська кодек: 2.0 бітрейт: 90 кб/с
Тривалість:
01:18:14
Про файл:
General
Unique ID : 163433666307877174449970154590230250577 (0x7AF42DDF27D0F649528D45AADC078451)
Complete name : G:\Torrents2\SPORT\Formula 1\F1.2019.Qualifying\F1.2019.03.Chinese.Qualifying.720p..Ukr.Eng.
Format :
Format version : Version 4
File size : 2.29 GiB
Duration : 1 h 18 min
Overall bit rate : 4 199 kb/s
Movie name : F1 2019 03 Chinese Qualifying
Encoded date : UTC 2019-04-13 09:59:40
Writing application : v32.0.0 ('Astral Progressions') 64-bit
Writing library : libebml v1.3.7 + v1.5.0

Video
ID : 1
Format : AVC
Format/Info : Advanced Video Codec
Format profile : [email protected]
Format settings : CABAC / 4 Ref Frames
Format settings, CABAC : Yes
Format settings, ReFrames : 4 frames
Format settings, GOP : M=4, N=50
Codec ID : V_MPEG4/ISO/AVC
Duration : 1 h 18 min
Bit rate mode : Constant
Bit rate : 4 000 kb/s
Width : 1 280 pixels
Height : 720 pixels
Display aspect ratio : 16:9
Frame rate mode : Constant
Frame rate : 25.000 FPS
Color space : YUV
Chroma subsampling : 4:2:0
Bit depth : 8 bits
Scan type : Progressive
Bits/(Pixel*Frame) : 0.174
Stream size : 2.15 GiB (94%)
Language : English
Default : Yes
Forced : No

Audio #1
ID : 2
Format : MPEG Audio
Format version : Version 1
Format profile : Layer 2
Codec ID : A_MPEG/L2
Codec ID/Hint : MP2
Duration : 1 h 18 min
Bit rate mode : Constant
Bit rate : 192 kb/s
Channel(s) : 2 channels
Sampling rate : 48.0 kHz
Frame rate : 41.667 FPS (1152 SPF)
Compression mode : Lossy
Stream size : 107 MiB (5%)
Title : Максим Подзігун
Language : Ukrainian
Default : Yes
Forced : Yes

Audio #2
ID : 3
Format : LC
Format/Info : Advanced Audio Codec Low Complexity
Codec ID : A_AAC-2
Duration : 1 h 18 min
Bit rate : 61.7 kb/s
Channel(s) : 2 channels
Channel layout : L R
Sampling rate : 44.1 kHz
Frame rate : 43.066 FPS (1024 SPF)
Compression mode : Lossy
Stream size : 34.5 MiB (1%)
Language : English
Default : No
Forced : No
Скріншоти:



Зведення: sergiyko


 Трекер:    Зареєстрований   

Завантажити / скачати торрент



відео для новачків



 Зареєстрований:   2019-04-13 12:03
 Розмір:   2.29 GB 
 Оцінка:   10/10 (Голосів: 11)
   
sergiyko.5 
Забанено
Забанено


З нами з: 25.02.16
Востаннє: 29.10.20
Повідомлень: 3651

2019-04-13 15:32  
В цьому релізові повна версія трансляції.
Ваш часовий пояс: GMT + 2 Години

Нова тема   Відповісти