Рання Пташка (Сезон 1) / Erkenci Kuş (Season 1) (2018-2019) 1080p/720p

Нові коментарі

Нова тема   Відповісти
Автор Повідомлення
Anonymous 







2019-04-13 11:45  
Рання Пташка (Сезон 1) / Erkenci Kuş (Season 1) (2018-2019) 1080p/720p

Рання Пташка (Сезон 1) / Erkenci Kuş (Season 1) (2018-2019) 1080p/720p


Жанр: романтична комедія
Країна: Туреччина



Кінокомпанія: Gold Film, Gold Yapim
Режисер: Чагри Байрак (Cagri Bayrak)
Актори: Демет Оздемір (Demet Özdemir ), Джан Яман (Can Yaman), Біранд Тунджа (Birand Tunca), Берат Енільмез (Berat Yenilmez ) та інші

Сюжет:
Санем з дитинства любила прокидатися, коли сонце тільки підіймається над небосхилом, тому її і назвали “ранньою пташкою”. Зараз їй 20 і вона досі прокидається раніше за всіх, але тепер щоб відкрити сімейний магазин замість батька. Безжурне життя героїні порушує новина про те, що батьки вирішують видати її заміж за нелюба, щоб виправити фінансове становище.

Санем не розгублюється і влаштовується на високооплачувану роботу в рекламне агентство Kontes. З першого ж дня Санем своїми діями змінює все всередині корпорації, хоч і працює звичайним кореспондентом. Дівчину помічають брати-співвласники Джан та Емре. Починається заплутана, але прекрасна історія кохання Санем та Джана. Адже хто може кохати пристрасніше, ніж турецькі чоловіки? Ревнощі, непорозуміння та підступи Емре — як закоханим знайти шлях до сердець один одного?


Тривалість: 1 серія: ~45 хв. (цілком серій: 80)
Перелік серій
Серії №1-80
Якість: [1plus1.video]
Відео*:
кодек:
розмір кадру: 1920 х 1080
бітрейт: 5-10 мб/с

Аудіо*:
мова: українська
переклад: багатоголосий закадровий
кодек: 2.0
бітрейт: 256 кб/с

* серії 68, 69, 70 у якості 1280 х 720 6000 кб/с / 2.0 128 кб/с

Джерело озвучення:
Info
General
Unique ID : 17293582817946281962143276711963497376 (0xD029F76572951EB088D80424E9393A0)
Complete name : F:\Support\series\Рання пташка (Сезон 1) [, 1080p, Ukr]\Серія 001.
Format :
Format version : Version 4
File size : 1.60 GiB
Duration : 42 min 22 s
Overall bit rate : 5 412 kb/s
Encoded date : UTC 2019-04-07 09:05:55
Writing application : v32.0.0 ('Astral Progressions') 64-bit
Writing library : libebml v1.3.7 + v1.5.0

Video
ID : 1
Format : AVC
Format/Info : Advanced Video Codec
Format profile : [email protected]
Format settings : CABAC / 6 Ref Frames
Format settings, CABAC : Yes
Format settings, ReFrames : 6 frames
Codec ID : V_MPEG4/ISO/AVC
Duration : 42 min 22 s
Bit rate : 5 154 kb/s
Width : 1 920 pixels
Height : 1 080 pixels
Display aspect ratio : 16:9
Frame rate mode : Constant
Frame rate : 25.000 FPS
Color space : YUV
Chroma subsampling : 4:2:0
Bit depth : 8 bits
Scan type : Progressive
Bits/(Pixel*Frame) : 0.099
Stream size : 1.53 GiB (95%)
Writing library : core 142 r2491 24e4fed
Encoding settings : cabac=1 / ref=6 / deblock=1:0:0 / analyse=0x3:0x113 / me=hex / subme=7 / psy=1 / psy_rd=1.00:0.00 / mixed_ref=1 / me_range=16 / chroma_me=1 / trellis=1 / 8x8dct=1 / cqm=0 / deadzone=21,11 / fast_pskip=1 / chroma_qp_offset=-2 / threads=12 / lookahead_threads=2 / sliced_threads=0 / nr=0 / decimate=1 / interlaced=0 / bluray_compat=0 / constrained_intra=0 / bframes=3 / b_pyramid=2 / b_adapt=1 / b_bias=0 / direct=1 / weightb=1 / open_gop=0 / weightp=2 / keyint=100 / keyint_min=10 / scenecut=40 / intra_refresh=0 / rc_lookahead=40 / rc=crf / mbtree=1 / crf=22.0 / qcomp=0.60 / qpmin=0 / qpmax=69 / qpstep=4 / vbv_maxrate=10000 / vbv_bufsize=20000 / crf_max=0.0 / nal_hrd=none / filler=0 / ip_ratio=1.41 / aq=1:1.00
Default : Yes
Forced : No

Audio
ID : 2
Format : LC
Format/Info : Advanced Audio Codec Low Complexity
Codec ID : A_AAC-2
Duration : 42 min 22 s
Bit rate : 256 kb/s
Channel(s) : 2 channels
Channel layout : L R
Sampling rate : 44.1 kHz
Frame rate : 43.066 FPS (1024 SPF)
Compression mode : Lossy
Delay relative to video : -80 ms
Stream size : 77.6 MiB (5%)
Title : ТЕТ
Language : Ukrainian
Default : Yes
Forced : No
Скріншоти
Джерело: &
Особиста оцінка: 0 - не дивився


Золотий реліз (завантажене не впливає на рейтинг)
 Трекер:    Зареєстрований   

Завантажити / скачати серіал українською



відео для новачків



 Зареєстрований:   2019-07-23 19:50
 Розмір:   154.64 GB 
 Оцінка серіалу:   8.5/10 (Голосів: 13)
   
Electroz 
Відео Гуртом - підтримка та поширення
Відео Гуртом - підтримка та поширення


З нами з: 18.09.14
Востаннє: 01.12.20
Повідомлень: 4217

2019-04-21 11:49  
Чому немає золота на важкі релізи?
caverz 
Новенький


З нами з: 27.09.11
Востаннє: 01.05.20
Повідомлень: 5

2019-06-04 14:02  
Станьте на роздачу, будь ласка
Anonymous 







2019-06-04 19:52  
caverz написано:
Станьте на роздачу, будь ласка

У вас занизький рейтинг, щоб щось звідси качати. Треба принаймні 0.15.

Anonymous 







2019-06-08 09:12  
Додав серії 51-80, повний перший сезон.

Додано через 1 хвилину 20 секунд:

Electroz написано:
Чому немає золота на важкі релізи?

Золото справді не завадило б Happy.

FAELIT 
Свій


З нами з: 16.01.18
Востаннє: 31.10.20
Повідомлень: 120

2019-06-08 09:15  
..
Anonymous 







2019-06-08 09:22  
FAELIT написано:
Чому знову в 720?

На цей раз це не я, тупо не залили в 1080p. Плюси тоді гралися з якістю відео, мабуть, через це. Але там 6 мб/с, якість чи не краща, аніж було у 1080p до 66-ї серії.

lost123 
Новенький


З нами з: 21.01.10
Востаннє: 20.08.20
Повідомлень: 9

2019-06-25 06:21  
пожалуйста раздайте
Anonymous 







2019-07-23 19:51  
Замінив 12-ту серію на кращу якість (1080p).
SrGr 
Свій


З нами з: 15.01.12
Востаннє: 29.11.20
Повідомлень: 110

2019-07-23 20:56  
lost123 написано:
раздайте

чого ж тільки раз, можна ж і більше ))

mash.vik 
Новенький


З нами з: 26.01.15
Востаннє: 11.12.19
Повідомлень: 1

2019-12-11 13:03  
а буде продовження?
Anonymous 







2019-12-11 13:52  
mash.vik написано:
а буде продовження?

За попередніми планами думав робити реліз другого сезону після закінчення показу на ТБ, тобто десь на початку наступного року. Але вже зараз можете подивитися його цілком безкоштовно онлайн на 1plus1.video.

Anonymous 







2019-12-28 21:41  
Другий сезон тут: https://toloka.to/t106669.
Ваш часовий пояс: GMT + 2 Години

Нова тема   Відповісти