Формула 1. Сезон 2019. Етап 3. Гран-Прі Китаю. Кваліфікація (13.04.2019) HDTV 1080i Ukr/Int

Нові коментарі

Нова тема   Відповісти
Останній раз роздавалося kilj (2020-08-12)
Автор Повідомлення
sergiyko.5 
Забанено
Забанено


З нами з: 25.02.16
Востаннє: 29.10.20
Повідомлень: 3651

2019-04-13 10:39  
Формула 1. Сезон 2019. Етап 3. Гран-Прі Китаю. Кваліфікація (13.04.2019) HDTV 1080i Ukr/Int

Формула 1. Сезон 2019. Етап 3. Гран-Прі Китаю. Кваліфікація (13.04.2019) HDTV 1080i Ukr/Int

Жанр: Перегони Формули 1
Країна: Китай
Телеканал: Матч ТБ
Коментатор: Максим Подзігун

Опис:
Кваліфікація третього етапу Гран-Прі Китаю 2019 року.


Якість: HDTV

Відео:кодек: розмір кадру: 1920 х 1080 бітрейт: 9700 кб/с
Аудіо # 1: мова: українська кодек: MP2 2.0 бітрейт: 192 кб/с
Аудіо # 2: мова: відсутня( інтершум) кодек: MP2 2.0 бітрейт: 192 кб/с

Примітка: у наявному відео реклама вирізана.
Тривалість:
01:02:34
Про файл:
General
Unique ID : 147124378018912597750170536753211787647 (0x6EAF1FE0629F52A7E2262CCAF66E497F)
Complete name : G:\Torrents2\SPORT\Formula 1\F1.2019.Qualifying\F1.2019.03.Chinese.Qualifying.1080i.HDTV.Ukr.Int.
Format :
Format version : Version 4
File size : 4.41 GiB
Duration : 1 h 2 min
Overall bit rate : 10.1 Mb/s
Encoded date : UTC 2019-04-13 08:32:40
Writing application : v32.0.0 ('Astral Progressions') 64-bit
Writing library : libebml v1.3.7 + v1.5.0

Video
ID : 1
Format : AVC
Format/Info : Advanced Video Codec
Format profile : [email protected]
Format settings : CABAC / 4 Ref Frames
Format settings, CABAC : Yes
Format settings, ReFrames : 4 frames
Codec ID : V_MPEG4/ISO/AVC
Duration : 1 h 2 min
Bit rate : 9 704 kb/s
Width : 1 920 pixels
Height : 1 080 pixels
Display aspect ratio : 16:9
Frame rate mode : Variable
Frame rate : 50.000 FPS
Original frame rate : 25.000 FPS
Standard : Component
Color space : YUV
Chroma subsampling : 4:2:0
Bit depth : 8 bits
Scan type : Interlaced
Scan type, store method : Separated fields
Scan order : Top Field First
Bits/(Pixel*Frame) : 0.094
Stream size : 4.24 GiB (96%)
Language : English
Default : Yes
Forced : No
Color range : Limited
Color primaries : BT.709
Transfer characteristics : BT.709
Matrix coefficients : BT.709

Audio #1
ID : 2
Format : MPEG Audio
Format version : Version 1
Format profile : Layer 2
Codec ID : A_MPEG/L2
Codec ID/Hint : MP2
Duration : 1 h 2 min
Bit rate mode : Constant
Bit rate : 192 kb/s
Channel(s) : 2 channels
Sampling rate : 48.0 kHz
Frame rate : 41.667 FPS (1152 SPF)
Compression mode : Lossy
Stream size : 85.9 MiB (2%)
Title : Максим Подзігун
Language : Ukrainian
Default : Yes
Forced : Yes

Audio #2
ID : 3
Format : MPEG Audio
Format version : Version 1
Format profile : Layer 2
Codec ID : A_MPEG/L2
Codec ID/Hint : MP2
Duration : 1 h 2 min
Bit rate mode : Constant
Bit rate : 192 kb/s
Channel(s) : 2 channels
Sampling rate : 48.0 kHz
Frame rate : 41.667 FPS (1152 SPF)
Compression mode : Lossy
Stream size : 85.9 MiB (2%)
Title : Інтершум
Default : No
Forced : No
Скріншоти:



Зведення: sergiyko


 Трекер:    Зареєстрований   

Завантажити / скачати торрент



відео для новачків



 Зареєстрований:   2019-04-13 10:39
 Розмір:   4.41 GB 
 Оцінка:   9.4/10 (Голосів: 15)
   
forsage29 
Новенький


З нами з: 24.07.12
Востаннє: 26.10.20
Повідомлень: 20

2019-04-13 10:53  
Дякую за оперативність!
sergiyko.5 
Забанено
Забанено


З нами з: 25.02.16
Востаннє: 29.10.20
Повідомлень: 3651

2019-04-13 11:00  
Перед тим, як завантажити, почитайте опис і подивіться скріни. Відео взято з російського телеканалу Матч, там під час трансляції була реклама, яка вирізана, час трансляції коротший за трансляцію Макса на 14 хвилин. Кращого відео на цю секунду немає. Прохання не задавати з цього приводу питань, я заморився кожному бажаючому відповідати, чому саме такий реліз. Що зміг, зробив.
VicCob 
Свій


З нами з: 16.06.10
Востаннє: 25.10.20
Повідомлень: 58

2019-04-13 12:49  
Не визнаю кацапське!! Як тут взагалі таке може викладатися?
circusrv 
Новенький


З нами з: 27.08.17
Востаннє: 21.07.20
Повідомлень: 1

2019-04-13 14:06  
Молодець!!!!
Дякую!!!

Petrovcheg 
Новенький


З нами з: 10.01.17
Востаннє: 29.10.20
Повідомлень: 15

2019-04-13 15:30  
Дякую за Макса з хорошою якістю відео.
Не звертайте уваги на істерики вишиватників.

Farazoon 
Частий відвідувач


З нами з: 12.04.12
Востаннє: 25.10.20
Повідомлень: 27

2019-04-14 10:34  
цілком добре та оперативно, правда в кінці обрізали доріжку Макса я так розумію, могли б просто аудіо залишити при статичному останньому кадрі
Ваш часовий пояс: GMT + 2 Години

Нова тема   Відповісти