Королі самогубства / Suicide Kings (1997) 1080p Ukr/Eng | Sub Eng

Нові коментарі

Нова тема   Відповісти
Автор Повідомлення
Anonymous 







2019-04-13 09:12  
Королі самогубства / Suicide Kings (1997) 1080p Ukr/Eng | Sub Eng

Королі самогубства / Suicide Kings (1997) 1080p Ukr/Eng | Sub Eng


Жанр: драма, трилер, кримінальний, комедія, нео-нуар
Країна: США



Кінокомпанія: Live Entertainment, Dinamo Entertainment, Eyes 'n Rice, Live Film, Mediaworks
Режисер: Пітер О'Фелон
Актори: Крістофер Вокен, Деніс Лірі, Шон Патрік Фланері, Джонні Галецкі, Джей Мор, Джеремі Сісто, Генрі Томас

Сюжет:
Ейвері, Макс і Бретт задумали викрадення ватажка нью-йоркської мафії Карло Бертолуччі. Ця зухвала авантюра - їх єдина надія знайти сліди зниклої подружки Лайзи. Ризикована спроба вдається, і ось монарх злочинного світу в їх руках. Однак молоді викрадачі, самі того не усвідомлюючи, стають іграшкою для розважливого і холоднокровного Карло. З безпорадної жертви він перетворюється в нещадного мисливця, легко і витончено роблячи відчайдушних хлопців справжніми королями самогубства.


Тривалість: 01:46:43
Якість: 1080p
Відео:
кодек:
розмір кадру: 1920х1040
бітрейт: 12,6 Mб/с

Аудіо # 1:
мова: українська
переклад: двоголосий закадровий
кодек: 2.0
бітрейт: 192 кб/с

Аудіо # 2:
мова: англійська
переклад: оригінал
кодек: E- 2.0
бітрейт: 224 кб/с

Субтитри:
мова: англійська
тип: програмні (м'які)
формат: *.srt
Info
General
Unique ID : 174466480969906052608760507347925534337 (0x834105A1BD0208D48BE9A8180A2D0681)
Format :
Format version : Version 4
File size : 9.87 GiB
Duration : 1 h 46 min
Overall bit rate mode : Variable
Overall bit rate : 13.2 Mb/s
Encoded date : UTC 2019-04-13 07:00:03
Writing application : v6.1.0 ('Old Devil') built on Mar 4 2013 09:10:42
Writing library : libebml v1.3.0 + v1.4.0

Video
ID : 1
Format : AVC
Format/Info : Advanced Video Codec
Format profile : [email protected]
Format settings : CABAC / 4 Ref Frames
Format settings, CABAC : Yes
Format settings, RefFrames : 4 frames
Codec ID : V_MPEG4/ISO/AVC
Duration : 1 h 46 min
Bit rate mode : Variable
Bit rate : 12.6 Mb/s
Maximum bit rate : 15.0 Mb/s
Width : 1 920 pixels
Height : 1 040 pixels
Display aspect ratio : 1.85:1
Frame rate mode : Constant
Frame rate : 23.976 (24000/1001) FPS
Color space : YUV
Chroma subsampling : 4:2:0
Bit depth : 8 bits
Scan type : Progressive
Bits/(Pixel*Frame) : 0.262
Stream size : 9.36 GiB (95%)
Writing library : core 148 r2623 d5b2374
Encoding settings : cabac=1 / ref=4 / deblock=1:-1:-1 / analyse=0x3:0x133 / me=umh / subme=9 / psy=1 / psy_rd=1.00:0.15 / mixed_ref=1 / me_range=24 / chroma_me=1 / trellis=2 / 8x8dct=1 / cqm=0 / deadzone=21,11 / fast_pskip=1 / chroma_qp_offset=-3 / threads=32 / lookahead_threads=5 / sliced_threads=0 / nr=150 / decimate=1 / interlaced=0 / bluray_compat=0 / constrained_intra=0 / bframes=8 / b_pyramid=2 / b_adapt=2 / b_bias=0 / direct=3 / weightb=1 / open_gop=0 / weightp=2 / keyint=120 / keyint_min=61 / scenecut=0 / intra_refresh=0 / rc_lookahead=120 / rc=crf / mbtree=1 / crf=18.0 / qcomp=0.60 / qpmin=0 / qpmax=69 / qpstep=4 / vbv_maxrate=15000 / vbv_bufsize=31250 / crf_max=0.0 / nal_hrd=vbr / filler=0 / ip_ratio=1.40 / aq=3:1.00
Default : Yes
Forced : No
Color range : Limited
Color primaries : BT.709
Transfer characteristics : BT.709
Matrix coefficients : BT.709

Audio #1
ID : 2
Format : AC-3
Format/Info : Audio Coding 3
Commercial name : Dolby Digital
Codec ID : A_AC3
Duration : 1 h 46 min
Bit rate mode : Constant
Bit rate : 192 kb/s
Channel(s) : 2 channels
Channel layout : L R
Sampling rate : 48.0 kHz
Frame rate : 31.250 FPS (1536 SPF)
Bit depth : 16 bits
Compression mode : Lossy
Stream size : 147 MiB (1%)
Title : UKR (TV5)
Language : Ukrainian
Service kind : Complete Main
Default : Yes
Forced : Yes

Audio #2
ID : 3
Format : E-AC-3
Format/Info : Enhanced AC-3
Commercial name : Dolby Digital Plus
Codec ID : A_EAC3
Duration : 1 h 46 min
Bit rate mode : Constant
Bit rate : 224 kb/s
Channel(s) : 2 channels
Channel layout : L R
Sampling rate : 48.0 kHz
Frame rate : 31.250 FPS (1536 SPF)
Compression mode : Lossy
Stream size : 171 MiB (2%)
Language : English
Service kind : Complete Main
Default : No
Forced : No

Text
ID : 4
Format : UTF-8
Codec ID : S_TEXT/UTF8
Codec ID/Info : UTF-8 Plain Text
Language : English
Default : No
Forced : No
Скріншоти






За українську доріжку подяка п. ssTAss
Особиста подяка пану denixx за надану матеріальну допомогу на підтримку цього і майбутніх релізів.
Джерело:


Срібний реліз (на рейтинг впливає 50% завантаженого)
 Трекер:    Зареєстрований   

Завантажити / скачати фільм українською



відео для новачків



 Зареєстрований:   2019-04-13 09:12
 Розмір:   9.87 GB 
 Оцінка фільму:   8.3/10 (Голосів: 4)
   
Інші релізи
   Королі самогубства / Suicide Kings (1997) -AVC Ukr/Eng ssTAss  2 / 0   2.25 GB   2019-02-09 22:00 
   Королі самогубства / Suicide Kings (1997) ssTAss  1 / 0   1.41 GB   2019-02-09 21:06 
Siegfried 
VIP


З нами з: 01.11.11
Востаннє: 06.12.19
Повідомлень: 286

2019-04-17 09:49  
Якби не мафіозний бос і двійко його рекетменів (лише їхні дії виглядають логічно , і лише ті актори добре грають), то фільм був би абсолютним провалом.

Загалом, на раз, якщо зможете витримати ідіотизм викрадачів і сценарні діри.

4/10

Ваш часовий пояс: GMT + 2 Години

Нова тема   Відповісти