У пошуках йєті / Mission Kathmandu: The Adventures of Nelly & Simon (2017) 720p Ukr/Eng | Sub Eng

Нові коментарі

Нова тема   Відповісти
Автор Повідомлення
sergiyko.5 
VIP


З нами з: 25.02.16
Востаннє: 28.02.20
Повідомлень: 2957

2019-04-12 10:03  
У пошуках йєті / Mission Kathmandu: The Adventures of Nelly & Simon (2017) 720p Ukr/Eng | Sub Eng

У пошуках йєті / Mission Kathmandu: The Adventures of Nelly & Simon (2017) 720p Ukr/Eng | Sub Eng

Жанр: пригоди, комедія
Країна: Канада
Кінокомпанія: Productions 10th Ave
Режисер: Ненсі Флоренс Севард, П'єр Ґреко
Актори: Сільві Моро, Гійом Лемай-Тів'єрж, Колм Фіор, Ноель Фішер, Рашель Лефевр та інші

Сюжет:
Події розгортаються у 1955 році. Неллі Малой, рішучий та дієвий новачок-детектив, випадково знайомиться з науковцем Саймоном Пікардом. Коло діяльності Саймона – антропологія, він науковий помічник у місцевому університеті. Вони вирішують поєднати свої зусилля, аби довести існування йеті. Неорганізована, запальна та кмітлива Неллі не схвалює методів роботи методичного та неквапливого Саймона. Та лише поєднавши свої знання та вміння вони зможуть досягнути результату. До рук дослідників потрапляє щоденник зниклого науковця, який також шукав міфічну істоту. Команда знаходить собі провідника у горах та разом усі вирушають у саме серце Гімалаїв.




Тривалість: 01:24:39
Якість:

Відео: кодек: розмір кадру: 1280 х 688 бітрейт: 4030 кб/с
Аудіо # 1: мова: українська переклад: професійний дубльований кодек: 2.0 бітрейт: 192 кб/с | студія AAA-Sound |
Аудіо # 2: мова: англійська переклад: оригінал кодек: 2.0 бітрейт: 192 кб/с
Субтитри: мова: англійська тип: програмні (м'які) формат: *.srt
Про файл:
General
Unique ID : 160672680272105188654625015903593515283 (0x78E06EC00F50BC3A639F8593C8A14913)
Complete name : G:\Torrents2\MULT\Mission Kathmandu.The Adventures of Nelly and Simon.2017.720p..Ukr.Eng.
Format :
Format version : Version 4
File size : 2.61 GiB
Duration : 1 h 24 min
Overall bit rate : 4 417 kb/s
Movie name : Mission Kathmandu.The Adventures of Nelly and Simon 2017 720p by sergiyko
Encoded date : UTC 2019-04-12 07:58:56
Writing application : v32.0.0 ('Astral Progressions') 64-bit
Writing library : libebml v1.3.7 + v1.5.0
Cover : Yes
Attachments : cover.jpeg

Video
ID : 1
Format : AVC
Format/Info : Advanced Video Codec
Format profile : [email protected]
Format settings : CABAC / 5 Ref Frames
Format settings, CABAC : Yes
Format settings, ReFrames : 5 frames
Codec ID : V_MPEG4/ISO/AVC
Duration : 1 h 24 min
Bit rate : 4 030 kb/s
Width : 1 280 pixels
Height : 688 pixels
Display aspect ratio : 1.85:1
Frame rate mode : Constant
Frame rate : 23.976 (24000/1001) FPS
Color space : YUV
Chroma subsampling : 4:2:0
Bit depth : 8 bits
Scan type : Progressive
Bits/(Pixel*Frame) : 0.191
Stream size : 2.38 GiB (91%)
Title : Mission Kathmandu.The Adventures of Nelly and Simon 2017
Writing library : core 157 r2935 545de2f
Encoding settings : cabac=1 / ref=5 / deblock=1:-2:-2 / analyse=0x3:0x113 / me=umh / subme=8 / psy=1 / psy_rd=1.00:0.00 / mixed_ref=1 / me_range=16 / chroma_me=1 / trellis=2 / 8x8dct=1 / cqm=0 / deadzone=21,11 / fast_pskip=1 / chroma_qp_offset=-2 / threads=12 / lookahead_threads=2 / sliced_threads=0 / nr=0 / decimate=1 / interlaced=0 / bluray_compat=0 / constrained_intra=0 / bframes=3 / b_pyramid=2 / b_adapt=2 / b_bias=0 / direct=3 / weightb=1 / open_gop=0 / weightp=2 / keyint=240 / keyint_min=24 / scenecut=40 / intra_refresh=0 / rc_lookahead=50 / rc=2pass / mbtree=1 / bitrate=4030 / ratetol=1.0 / qcomp=0.60 / qpmin=0 / qpmax=69 / qpstep=4 / cplxblur=20.0 / qblur=0.5 / ip_ratio=1.40 / aq=1:1.00
Language : English
Default : Yes
Forced : No

Audio #1
ID : 2
Format : AC-3
Format/Info : Audio Coding 3
Commercial name : Dolby Digital
Codec ID : A_AC3
Duration : 1 h 24 min
Bit rate mode : Constant
Bit rate : 192 kb/s
Channel(s) : 2 channels
Channel layout : L R
Sampling rate : 48.0 kHz
Frame rate : 31.250 FPS (1536 SPF)
Bit depth : 16 bits
Compression mode : Lossy
Stream size : 116 MiB (4%)
Title : DUB 2ch
Language : Ukrainian
Service kind : Complete Main
Default : Yes
Forced : Yes

Audio #2
ID : 3
Format : AC-3
Format/Info : Audio Coding 3
Commercial name : Dolby Digital
Codec ID : A_AC3
Duration : 1 h 24 min
Bit rate mode : Constant
Bit rate : 192 kb/s
Channel(s) : 2 channels
Channel layout : L R
Sampling rate : 48.0 kHz
Frame rate : 31.250 FPS (1536 SPF)
Bit depth : 16 bits
Compression mode : Lossy
Stream size : 116 MiB (4%)
Title : Original
Language : English
Service kind : Complete Main
Default : No
Forced : No

Text
ID : 4
Format : UTF-8
Codec ID : S_TEXT/UTF8
Codec ID/Info : UTF-8 Plain Text
Duration : 4 s 504 ms
Bit rate : 88 b/s
Count of elements : 1
Stream size : 50.0 Bytes (0%)
Language : English
Default : No
Forced : No

Menu
00:00:00.000 : en:00:00:00.000
00:06:57.959 : en:00:06:57.959
00:13:33.855 : en:00:13:33.855
00:20:51.375 : en:00:20:51.375
00:29:55.627 : en:00:29:55.627
00:37:00.510 : en:00:37:00.510
00:43:34.779 : en:00:43:34.779
00:48:43.754 : en:00:48:43.754
00:55:08.514 : en:00:55:08.514
01:01:41.698 : en:01:01:41.698
01:08:02.829 : en:01:08:02.829
01:14:34.970 : en:01:14:34.970
Скріншоти:



 Трекер:    Зареєстрований   

Завантажити / скачати мультфільм українською



відео для новачків



 Зареєстрований:   2019-04-12 10:03
 Розмір:   2.61 GB 
 Оцінка мультфільму:   9.3/10 (Голосів: 3)
   
11FrYkT 
Модератор відео


З нами з: 20.02.11
Востаннє: 27.02.20
Повідомлень: 6580

2019-04-12 13:53  
sergiyko.5 , У Вас Мі не повне
sergiyko.5 
VIP


З нами з: 25.02.16
Востаннє: 28.02.20
Повідомлень: 2957

2019-04-12 13:56  
11FrYkT
виправив

Ваш часовий пояс: GMT + 2 Години

Нова тема   Відповісти