VA - Збірка відеокліпів - EU MUSIC_UA - 001 [2017-2019, Pop, Trance, , 1080р]

Нові коментарі

Нова тема   Відповісти
Автор Повідомлення
Nic22a 
Новенький


З нами з: 02.04.19
Востаннє: 14.07.19
Повідомлень: 9

2019-04-10 20:39  
VA - Збірка відеокліпів - EU MUSIC_UA - 001 [2017-2019, Pop, Trance, , 1080р]

VA - Збірка відеокліпів - EU MUSIC_UA - 001 [2017-2019, Pop, Trance, , 1080р]


Стиль: Pop, Trance
Країна, місто: Україна
Виконавці:
001. ALL STARS MOZGI ENT. - Промінь (Mozgi Enteraimment 2018)
002. KAZKA - Дива (mamamusic 2018)
003. KAZKA - Плакала (mamamusic 2018)
004. KAZKA - СВЯТА (mamamusic 2017)
005. NK Тримай (NICE2CU 2018)
006. TAYANNA - Фантастична жінка 2018
007. TAYANNA - Шкода 2017
008. THE HARDIKISS - Мелодія (Comp Music_Universal 2018)
009. БЕЗ ОБМЕЖЕНЬ - Листопад 2018
010. ВРЕМЯ И СТЕКЛО- Дим (Mozgi Enteraimment 2019)
011. ЗЛАТА ОГНЄВІЧ - До мене (Multiza Distribution 2018)
012. МАРІЯ ЯРЕМЧУК - Ти в мені є_2017

Тривалість: 00:59:45
Якість:
Відео:
кодек:
розмір кадру: 1920x1080p (16:9)
бітрейт: 4496 кб/с

Аудіо:
мова: українська
кодек: MP3
бітрейт: ~320 кб/с
Скріншоти










Info
Общее
Уникальный идентификатор : 119077613907132449399194744728691456552 (0x599583A4C5FEBF21A94F70081F04BA28)
Полное имя : D:\EU MUSIC_006\ALL STARS MOZGI ENT. - Промінь (Mozgi Enteraimment 2018).
Формат :
Версия формата : Version 2
Размер файла : 127 Мбайт
Продолжительность : 3 м. 39 с.
Общий поток : 4842 Кбит/сек
Программа кодирования : Lavf52.94.0
Библиотека кодирования : Lavf52.94.0

Видео
Идентификатор : 1
Формат : AVC
Формат/Информация : Advanced Video Codec
Профиль формата : [email protected]
Настройки формата : CABAC / 2 Ref Frames
Параметр CABAC формата : Да
Параметр RefFrames формата : 2 кадра
Идентификатор кодека : V_MPEG4/ISO/AVC
Продолжительность : 3 м. 39 с.
Битрейт : 4496 Кбит/сек
Ширина : 1920 пикселей
Высота : 1080 пикселей
Соотношение сторон : 16:9
Режим частоты кадров : Постоянный
Частота кадров : 25,000 кадров/сек
Цветовое пространство : YUV
Субдискретизация насыщенности : 4:2:0
Битовая глубина : 8 бит
Тип развёртки : Прогрессивная
Бит/(Пиксели*Кадры) : 0.087
Размер потока : 116 Мбайт (91%)
Библиотека кодирования : core 112 r1834 a51816a
Настройки программы : cabac=1 / ref=1 / deblock=1:0:0 / analyse=0x1:0 / me=dia / subme=2 / psy=1 / psy_rd=0.00:0.00 / mixed_ref=0 / me_range=16 / chroma_me=1 / trellis=0 / 8x8dct=0 / cqm=0 / deadzone=21,11 / fast_pskip=1 / chroma_qp_offset=0 / threads=2 / sliced_threads=0 / nr=0 / decimate=1 / interlaced=0 / constrained_intra=0 / bframes=3 / b_pyramid=0 / b_adapt=1 / b_bias=0 / direct=3 / weightb=0 / open_gop=0 / weightp=2 / keyint=250 / keyint_min=25 / scenecut=40 / intra_refresh=0 / rc_lookahead=40 / rc=abr / mbtree=1 / bitrate=4496 / ratetol=1.0 / qcomp=0.60 / qpmin=10 / qpmax=51 / qpstep=4 / ip_ratio=1.41 / aq=1:1.00
Default : Да
Forced : Нет

Аудио
Идентификатор : 2
Формат : MPEG Audio
Версия формата : Version 1
Профиль формата : Layer 3
Настройки формата : Joint stereo / MS Stereo
Идентификатор кодека : A_MPEG/L3
Идентификатор кодека/Подсказка : MP3
Продолжительность : 3 м. 39 с.
Вид битрейта : Постоянный
Битрейт : 320 Кбит/сек
Каналы : 2 канала
Частота : 48,0 КГц
Метод сжатия : С потерями
Задержка видео : 48 мс.
Размер потока : 8,37 Мбайт (7%)
Библиотека кодирования : LAMEЄ
Default : Да
Forced : Нет
: Нет
Джерело:
Особиста оцінка: 10 - без зайвих вагань рекомендую всім!


 Трекер:    Зареєстрований   

Завантажити / скачати кліп українською



відео для новачків



 Зареєстрований:   2019-04-10 20:39
 Розмір:   1.39 GB 
 Оцінка кліпу:   8.1/10 (Голосів: 10)
   
Nic22a 
Новенький


З нами з: 02.04.19
Востаннє: 14.07.19
Повідомлень: 9

2019-04-10 20:48  
Приємного перегляду!!!

Запис зроблено з супутникового телеканалу, EU MUSIC супутниковим ресівером CryptoBox 500HD mini

11FrYkT 
Модератор відео


З нами з: 20.02.11
Востаннє: 25.05.20
Повідомлень: 6880

2019-04-11 10:45  
Nic22a написано:
VA - Збірка відеокліпів - EU MUSIC_UA - 001 [2017-2019, Pop, Trance, , 1080р]

Зробити заголовок нормально
Скріншоти не відповідають вказаному розміру кадра і вони повинні бути у форматі ПНГ, додайте звіт Медіаінфо

sergiyko.5 
Попереджень: 1
Попереджень: 1 


З нами з: 25.02.16
Востаннє: 26.05.20
Повідомлень: 3123

2019-04-11 12:49  
Nic22a
Можете підказати частоту і параметри супутникового каналу EU Music?

Kucherman 
Свій


З нами з: 03.06.08
Востаннє: 21.05.20
Повідомлень: 54

2019-04-11 20:57  
sergiyko.5
Amos 12364 H 13333
Детальніше https://www.lyngsat.com/Amos-3-7.html

sergiyko.5 
Попереджень: 1
Попереджень: 1 


З нами з: 25.02.16
Востаннє: 26.05.20
Повідомлень: 3123

2019-04-11 22:40  
Kucherman
На цій частоті відео має постійні цифрові викривлення. Я не думаю що з такими багами можна релізити відео на трекері. Тому і питаю у релізера, звідки запис. Мабудь це не HDTV, а .

Nic22a 
Новенький


З нами з: 02.04.19
Востаннє: 14.07.19
Повідомлень: 9

2019-04-12 06:20  
sergiyko.5 написано:
Можете підказати частоту і параметри супутникового каналу EU Music?


EU MUSIC AMOS 4W 12364, H, 13333, 3/4

Додано через 6 хвилин 38 секунд:

sergiyko.5
На цій частоті відео має постійні цифрові викривлення. Я не думаю що з такими багами можна релізити відео на трекері. Тому і питаю у релізера, звідки запис. Мабудь це не HDTV, а .

Якщо Вас проблеми з прийомом на цій частоті, то чому вони повині бути у мене? ЦЕ HDTV!!!

sergiyko.5 
Попереджень: 1
Попереджень: 1 


З нами з: 25.02.16
Востаннє: 26.05.20
Повідомлень: 3123

2019-04-12 08:10  
Nic22a
Ваше посилання під назвою тюнера веде на сторінку картшаринга, що це означає? Канал треба розкодовувати? Я дійсно хочу зрозуміти, є подібно багові канали Niki Kids та Niki Junior. Вони теж відкриті але картинка сипле помилками. А хотілось би мати змогу записувати якісний контент.

Nic22a 
Новенький


З нами з: 02.04.19
Востаннє: 14.07.19
Повідомлень: 9

2019-04-12 09:30  
sergiyko.5
Посилання на тюнер вставлено лише для того щоб Ви зрозуміли чим я пишу! Канал не закодований, у вільному доступі! В моему регіоні сигнал добрий, але глючить при дождливій погоді.

sergiyko.5 
Попереджень: 1
Попереджень: 1 


З нами з: 25.02.16
Востаннє: 26.05.20
Повідомлень: 3123

2019-04-12 09:34  
Дякую.
Nic22a 
Новенький


З нами з: 02.04.19
Востаннє: 14.07.19
Повідомлень: 9

2019-04-12 19:04  
11FrYkT
Зробити заголовок нормально

Що не так з моїм заголовком?

11FrYkT 
Модератор відео


З нами з: 20.02.11
Востаннє: 25.05.20
Повідомлень: 6880

2019-05-23 21:26  
Nic22a написано:
Що не так з моїм заголовком?

подивіться сусідні теми і побачите

VIKTOtor 
Поважний учасник


З нами з: 02.01.12
Востаннє: 23.05.20
Повідомлень: 164

2019-05-24 14:24  
Nic22a
А ви часом не плануєте робити роздачу відеокліпів з караоке з М1 чи М2?

Nic22a 
Новенький


З нами з: 02.04.19
Востаннє: 14.07.19
Повідомлень: 9

2019-05-24 18:37  
11FrYkT
Змістовна відповідь!!! ДЯКУЮ!!!!!!!!!!!!!!!!!!!!!!!!!!!!!!!!!!!!!!!!!!

sergiyko.5 
Попереджень: 1
Попереджень: 1 


З нами з: 25.02.16
Востаннє: 26.05.20
Повідомлень: 3123

2019-05-24 18:47  
Nic22a
Подивіться як прописана назва у перевірених релізах, наприклад

Фіолет - Нірванабуде (2017) 1080p | Pop-Rock

і пропишіть у себе так саме.

NikVadu 
Новенький


З нами з: 12.01.10
Востаннє: 25.05.20
Повідомлень: 21

2019-05-24 21:49  
Nic22a
ОБОВ’ЯЗКОВО має бути вказано:
Виконавець - Назва альбому (рік виходу) [Формат] | Стиль
Приклад: ТіК - ЛітераDYPA (2007) [MP3] | Folk-Rock
Слід зазначити, що якщо це дискографія, то назва теми матиме наступний вигляд:
Виконавець | Дискографія (Кількість альбомів) (Період років виходу) [Формат]| Стиль
Приклад: Мертвий Півень | Дискографія (14 альбомів) (1992-2009) [MP3] | Rock

3. Обкладинка
Обирається із жорствкого диску обкладинка, яка після натискання кнопки „Далі“ автоматично буде завантажена на сервер. Ширина та висота обкладинки мають бути не більшими за 600 пікселів.

4. Стиль
Ось тут бажано не перегнути із визначенням жанру, аби не було „супер-пупер клоун гранджу“. Якщо Ви не впевнені у стилі, то зайдіть на офіційний сат виконавця або музичні ресурси, яким Ви довіряєте і подивіться там як визначається стиль виконавця (а можливо й конкретного
альбому).
Перелік основних стилів: є в Майстрі оформлення релізу

5. Пісні
5.1 Прономерований перелік пісень в альбомі у порядку виконання.

Загалом тут усе https://toloka.to/t223

Ваш часовий пояс: GMT + 2 Години

Нова тема   Відповісти