Скло / Glass (2019) Remux 1080p Ukr/Eng | Sub Eng

Нові коментарі

Нова тема   Відповісти
Автор Повідомлення
IronBee 
Поважний учасник


З нами з: 08.02.10
Востаннє: 10.12.19
Повідомлень: 225

2019-04-10 17:54  
Скло / Glass (2019) Remux 1080p Ukr/Eng | Sub Eng

Скло / Glass (2019) Remux 1080p Ukr/Eng | Sub Eng


Жанр: детектив, драма, трилер, фантастика
Країна: США



Кінокомпанія: Universal Pictures, Blumhouse Productions
Режисер: М. Найт Шьямалан
Актори: Джеймс МакЕвой, Брюс Вілліс, Семюел Л. Джексон, Аня Тейлор-Джой, Сара Полсон, Спенсер Тріт Кларк, Чарлейн Вудард, Люк Кірбі, М. Найт Ш'ямалан

Сюжет:
Дві протилежності Елайджа Прайс на прізвисько Містер Скло, чиї кістки можуть зламатися від найменшого на них впливу, і невразливий, але злегка постарілий супергерой Девід Данн виявилися разом в одній психіатричній лікарні. Те, що вони вважають своєю перевагою, для суспільства є вадами. У тій же психушці опинився ще один хлопець, у якого є безліч особистостей – його звуть Кевін, а іноді просто Спліт. Містер Скло зумів переконати хлопця встати на свою сторону, щоб разом бігти з цього місця. Елайджа знає, що одна з особистостей Спліта – це жахливий і неконтрольований Звір, рівних якому складно знайти. Девід Данн зобов'язаний їх зупинити. Якщо випустити Звіра на свободу, нічого доброго не буде.


Тривалість: 02:09:02
Якість: Remux 1080p
Відео:
кодек:
розмір кадру: 1920 х 1080
бітрейт: 29,5 Mб/с

Аудіо # 1:
мова: українська
переклад: професійний дубльований
кодек: 5.1
бітрейт: 448 кб/с

Аудіо # 2:
мова: англійська
переклад: оригінал
кодек: Dolby TrueHD with Dolby Atmos 7.1
бітрейт: 4109 кб/с

Субтитри # 1-2: (Повні, SDH)
мова: англійська
тип: програмні (м'які)
формат: *.srt
Info
General
Unique ID : 320324288413003257998655976048772534143 (0xF0FC36C1F2B8BD79802F2FFBE1B84F7F)
Complete name : D:\Films\Скло Glass (2019) Remux 1080p UkrEng Sub Eng[Hurtom].
Format :
Format version : Version 4
File size : 30.8 GiB
Duration : 2 h 9 min
Overall bit rate mode : Variable
Overall bit rate : 34.1 Mb/s
Encoded date : UTC 2019-05-18 15:46:27
Writing application : v33.1.0 ('Primrose') 64-bit
Writing library : libebml v1.3.7 + v1.5.0

Video
ID : 1
Format : AVC
Format/Info : Advanced Video Codec
Format profile : [email protected]
Format settings : CABAC / 4 Ref Frames
Format settings, CABAC : Yes
Format settings, ReFrames : 4 frames
Codec ID : V_MPEG4/ISO/AVC
Duration : 2 h 9 min
Bit rate mode : Variable
Bit rate : 29.5 Mb/s
Maximum bit rate : 38.6 Mb/s
Width : 1 920 pixels
Height : 1 080 pixels
Display aspect ratio : 16:9
Frame rate mode : Constant
Frame rate : 23.976 (24000/1001) FPS
Color space : YUV
Chroma subsampling : 4:2:0
Bit depth : 8 bits
Scan type : Progressive
Bits/(Pixel*Frame) : 0.593
Stream size : 26.6 GiB (86%)
Language : English
Default : Yes
Forced : No

Audio #1
ID : 2
Format : AC-3
Format/Info : Audio Coding 3
Commercial name : Dolby Digital
Codec ID : A_AC3
Duration : 2 h 9 min
Bit rate mode : Constant
Bit rate : 448 kb/s
Channel(s) : 6 channels
Channel layout : L R C LFE Ls Rs
Sampling rate : 48.0 kHz
Frame rate : 31.250 FPS (1536 SPF)
Bit depth : 16 bits
Compression mode : Lossy
Stream size : 413 MiB (1%)
Title : 5.1 448 кб/с професійний дубльований
Language : Ukrainian
Service kind : Complete Main
Default : Yes
Forced : No

Audio #2
ID : 3
Format : MLP FBA 16-ch
Format/Info : Meridian Lossless Packing FBA with 16-channel presentation
Commercial name : Dolby TrueHD with Dolby Atmos
Codec ID : A_TRUEHD
Duration : 2 h 9 min
Bit rate mode : Variable
Bit rate : 4 109 kb/s
Maximum bit rate : 7 326 kb/s
Channel(s) : 8 channels
Channel layout : L R C LFE Ls Rs Lb Rb
Sampling rate : 48.0 kHz
Frame rate : 1 200.000 FPS (40 SPF)
Compression mode : Lossless
Stream size : 3.70 GiB (12%)
Title : Original
Language : English
Default : No
Forced : No
Number of dynamic objects : 11
Bed channel count : 1 channel
Bed channel configuration : LFE

Text #1
ID : 4
Format : UTF-8
Codec ID : S_TEXT/UTF8
Codec ID/Info : UTF-8 Plain Text
Duration : 2 h 1 min
Bit rate : 43 b/s
Count of elements : 1201
Stream size : 38.8 KiB (0%)
Title : Full
Language : English
Default : No
Forced : No

Text #2
ID : 5
Format : UTF-8
Codec ID : S_TEXT/UTF8
Codec ID/Info : UTF-8 Plain Text
Duration : 2 h 2 min
Bit rate : 52 b/s
Count of elements : 1565
Stream size : 46.8 KiB (0%)
Title : SDH
Language : English
Default : No
Forced : No

Menu
00:00:00.000 : en:Розділ 01
00:04:08.457 : en:Розділ 02
00:09:36.367 : en:Розділ 03
00:14:30.078 : en:Розділ 04
00:19:49.897 : en:Розділ 05
00:24:41.063 : en:Розділ 06
00:29:45.826 : en:Розділ 07
00:35:00.598 : en:Розділ 08
00:39:07.595 : en:Розділ 09
00:47:28.220 : en:Розділ 10
00:57:16.224 : en:Розділ 11
01:02:55.271 : en:Розділ 12
01:09:26.829 : en:Розділ 13
01:14:30.299 : en:Розділ 14
01:21:43.774 : en:Розділ 15
01:30:10.530 : en:Розділ 16
01:38:15.515 : en:Розділ 17
01:44:08.742 : en:Розділ 18
01:54:07.215 : en:Розділ 19
02:03:00.290 : en:Розділ 20
Скріншоти




Джерело: &


Золотий реліз (завантажене не впливає на рейтинг)
 Трекер:    Зареєстрований   

Завантажити / скачати фільм українською



відео для новачків



 Зареєстрований:   2019-05-18 19:28
 Розмір:   30.76 GB 
 Оцінка фільму:   8.7/10 (Голосів: 10)
   
Інші релізи
   Скло / Glass (2019) UHD Remux 2160p 4K HDR H.265 Ukr/Eng kocyxuh  4 / 1   63.79 GB   2019-06-30 20:36 
   Скло / Glass (2019) 1080p H.265 Ukr/Eng | Sub Eng -Star-Lord-  12 / 0   8.05 GB   2019-05-19 13:32 
   Скло / Glass (2019) antik_2008  25 / 0   1.73 GB   2019-05-07 14:37 
   Скло / Glass (2019) 1080p Ukr/Eng | Sub Eng antik_2008  12 / 0   14.51 GB   2019-05-04 22:13 
   Скло / Glass (2019) AVC uafilm.tv  11 / 4   1.46 GB   2019-05-04 19:11 
   Скло / Glass (2019) 720p Ukr/Eng | Sub Eng 11FrYkT  24 / 4   5.77 GB   2019-05-04 19:03 
   Скло / Glass (2019) AVC Ukr/Eng | Sub Eng 11FrYkT  10 / 1   2.41 GB   2019-05-04 09:51 
   Скло / Glass (2019) Ukr/Eng Neo_Men  17 / 0   2.17 GB   2019-04-08 13:28 
   Скло / Glass (2019) UHD mini 2160p 4K HDR H.265 Ukr/Eng | Sub Eng/Fra/Spa Neo_Men  10 / 0   18.34 GB   2019-04-08 13:07 
Uberwinder 
VIP


З нами з: 18.11.16
Востаннє: 10.12.19
Повідомлень: 277

2019-05-06 06:26  
Вітаю! У нас на сайті вже є багатоканальний звук. Оновлення релізу планується?
IronBee 
Поважний учасник


З нами з: 08.02.10
Востаннє: 10.12.19
Повідомлень: 225

2019-05-18 19:31  
Реліз оновлено. Додав АС3 5.1 @ 448 kbps
Ваш часовий пояс: GMT + 2 Години

Нова тема   Відповісти