Чорний яструб / Падіння чорного яструба / Black Hawk Down (2001) Remux 1080p 3xUkr/Eng | Sub Eng

Нові коментарі

Нова тема   Відповісти
Автор Повідомлення
kryk-v.ya. 
VIP


З нами з: 14.02.14
Востаннє: 24.04.19
Повідомлень: 1130

2019-04-10 16:57  
Чорний яструб / Падіння чорного яструба / Black Hawk Down (2001) Remux 1080p 3xUkr/Eng | Sub Eng

Чорний яструб / Падіння чорного яструба / Black Hawk Down (2001) Remux 1080p 3xUkr/Eng | Sub Eng


Жанр: драма, історичний, військовий
Країна: США



Кінокомпанія: Revolution Studios, Jerry Bruckheimer Films, Scott Free Productions
Режисер: Рідлі Скотт / Ridley Scott
Актори: Джош Гартнет / Josh Hartnett, Юен МакҐреґор / Ewan McGregor, Том Сайзмор / Tom Sizemore, Ерік Бана / Eric Bana, Вільям Фіхтнер / William Fichtner, Юен Бремнер / Ewen Bremner, Сем Шепард / Sam Shepard, Гебріель Коссес / Gabriel Casseus, Кім Коутс / Kim Coates, Г’ю Денсі / Hugh Dancy та інші.

Сюжет:
1993 рік, Сомалі, громадянська війна. Війська генерала Айдіда контролюють столицю Могадішо, мародерять гуманітарну допомогу від ООН, що призводить до гуманітарної катастрофи серед цивільного населення. Уряд США залучає загони спецпризначенців Дельта та рейнджерів до операції по захопленню генерала, плануючи вкластися в 45 хвилин. Але реальність міняє їх плани і коротка місія перетворюється на криваву бійню на години з десятками загиблих і поранених...


Тривалість: 02:23:42
Якість: Remux 1080p
Відео:
кодек:
розмір кадру: 1920 х 1080
бітрейт: 31,1 Mбіт/с

Аудіо # 1:
мова: українська
переклад: багатоголосий закадровий |
кодек: 2.0
бітрейт: 192 кб/с

Аудіо # 2:
мова: українська
переклад: двоголосий закадровий |
кодек: 2.0
бітрейт: 192 кб/с
ролі озвучили: Олег Лепенець, Андрій Твердак
примітка: наприкінці 2 хв. озвучення вставлено з доріжки НТН, бо 2+2 їх обрізали і не показали.

Аудіо # 3:
мова: українська
переклад: багатоголосий закадровий |
кодек: 2.0
бітрейт: 192 кб/с
ролі озвучили: Сем Шепард — Олег Стальчук, Джош Гартнет — Анатолій Пашнін, Анатолій Зіновенко

Аудіо # 4:
мова: українська
переклад: двоголосий закадровий |
кодек: 5.1
бітрейт: 448 кб/с

Аудіо # 5:
мова: українська
переклад: багатоголосий закадровий |
кодек: 5.1
бітрейт: 448 кб/с

Аудіо # 6:
мова: англійська
переклад: оригінал
кодек: -HD MA 7.1
бітрейт: 2699 кб/с

Субтитри:
мова: англійська
тип: програмні (м'які)
формат: *.srt
Info
General
Unique ID : 155561974531074988976429555204429378086 (0x75082580BEAD19770BAD86A35C2EF226)
Complete name : E:\Black Hawk Down (2001) Remux 1080p.
Format :
Format version : Version 4
File size : 35.4 GiB
Duration : 2 h 24 min
Overall bit rate mode : Variable
Overall bit rate : 35.1 Mb/s
Encoded date : UTC 2019-04-09 17:05:32
Writing application : v25.0.0 ('Prog Noir') 64-bit
Writing library : libebml v1.3.6 + v1.4.9
Cover : Yes
Attachments : cover.jpg

Video
ID : 1
Format : AVC
Format/Info : Advanced Video Codec
Format profile : [email protected]
Format settings : CABAC / 4 Ref Frames
Format settings, CABAC : Yes
Format settings, ReFrames : 4 frames
Format settings, GOP : M=3, N=24
Codec ID : V_MPEG4/ISO/AVC
Duration : 2 h 23 min
Bit rate mode : Variable
Bit rate : 31.1 Mb/s
Maximum bit rate : 36.0 Mb/s
Width : 1 920 pixels
Height : 1 080 pixels
Display aspect ratio : 16:9
Frame rate mode : Constant
Frame rate : 23.976 (24000/1001) FPS
Standard : NTSC
Color space : YUV
Chroma subsampling : 4:2:0
Bit depth : 8 bits
Scan type : Progressive
Bits/(Pixel*Frame) : 0.625
Stream size : 31.2 GiB (88%)
Default : Yes
Forced : No
Color range : Limited
Color primaries : BT.709
Transfer characteristics : BT.709
Matrix coefficients : BT.709

Audio #1
ID : 2
Format : AC-3
Format/Info : Audio Coding 3
Commercial name : Dolby Digital
Codec ID : A_AC3
Duration : 2 h 23 min
Bit rate mode : Constant
Bit rate : 192 kb/s
Channel(s) : 2 channels
Channel layout : L R
Sampling rate : 48.0 kHz
Frame rate : 31.250 FPS (1536 SPF)
Bit depth : 16 bits
Compression mode : Lossy
Stream size : 197 MiB (1%)
Title : MVO-AMC
Language : Ukrainian
Service kind : Complete Main
Default : Yes
Forced : No

Audio #2
ID : 3
Format : AC-3
Format/Info : Audio Coding 3
Commercial name : Dolby Digital
Codec ID : A_AC3
Duration : 2 h 23 min
Bit rate mode : Constant
Bit rate : 192 kb/s
Channel(s) : 2 channels
Channel layout : L R
Sampling rate : 48.0 kHz
Frame rate : 31.250 FPS (1536 SPF)
Bit depth : 16 bits
Compression mode : Lossy
Stream size : 197 MiB (1%)
Title : DVO-2+2
Language : Ukrainian
Service kind : Complete Main
Default : No
Forced : No

Audio #3
ID : 4
Format : AC-3
Format/Info : Audio Coding 3
Commercial name : Dolby Digital
Codec ID : A_AC3
Duration : 2 h 23 min
Bit rate mode : Constant
Bit rate : 192 kb/s
Channel(s) : 2 channels
Channel layout : L R
Sampling rate : 48.0 kHz
Frame rate : 31.250 FPS (1536 SPF)
Bit depth : 16 bits
Compression mode : Lossy
Stream size : 197 MiB (1%)
Title : MVO-ICTV
Language : Ukrainian
Service kind : Complete Main
Default : No
Forced : No

Audio #4
ID : 5
Format : AC-3
Format/Info : Audio Coding 3
Commercial name : Dolby Digital
Codec ID : A_AC3
Duration : 2 h 23 min
Bit rate mode : Constant
Bit rate : 448 kb/s
Channel(s) : 6 channels
Channel layout : L R C LFE Ls Rs
Sampling rate : 48.0 kHz
Frame rate : 31.250 FPS (1536 SPF)
Bit depth : 16 bits
Compression mode : Lossy
Stream size : 459 MiB (1%)
Title : DVO-2+2
Language : Ukrainian
Service kind : Complete Main
Default : No
Forced : No

Audio #5
ID : 6
Format : AC-3
Format/Info : Audio Coding 3
Commercial name : Dolby Digital
Codec ID : A_AC3
Duration : 2 h 23 min
Bit rate mode : Constant
Bit rate : 448 kb/s
Channel(s) : 6 channels
Channel layout : L R C LFE Ls Rs
Sampling rate : 48.0 kHz
Frame rate : 31.250 FPS (1536 SPF)
Bit depth : 16 bits
Compression mode : Lossy
Stream size : 459 MiB (1%)
Title : MVO-ICTV
Language : Ukrainian
Service kind : Complete Main
Default : No
Forced : No

Audio #6
ID : 7
Format : XLL
Format/Info : Digital Theater Systems
Commercial name : -HD Master Audio
Codec ID : A_DTS
Duration : 2 h 24 min
Bit rate mode : Variable
Bit rate : 2 699 kb/s
Channel(s) : 8 channels
Channel layout : C L R Ls Rs LFE Lb Rb
Sampling rate : 48.0 kHz
Frame rate : 93.750 FPS (512 SPF)
Bit depth : 16 bits
Compression mode : Lossless
Stream size : 2.72 GiB (8%)
Title : Original
Language : English
Default : No
Forced : No

Text
ID : 8
Format : UTF-8
Codec ID : S_TEXT/UTF8
Codec ID/Info : UTF-8 Plain Text
Duration : 2 h 12 min
Bit rate : 47 b/s
Count of elements : 1408
Stream size : 46.2 KiB (0%)
Title : full
Language : English
Default : Yes
Forced : No

Menu
00:00:00.000 : en:Chapter 1 / en:Глава 01
00:20:37.069 : en:Chapter 2
00:29:39.736 : en:Chapter 3
00:36:54.921 : en:Chapter 4
00:40:49.280 : en:Chapter 5
00:50:53.258 : en:Chapter 6
00:59:07.544 : en:Chapter 7
01:06:59.890 : en:Chapter 8
01:24:50.794 : en:Chapter 9
01:26:34.272 : en:Chapter 10
01:38:49.214 : en:Chapter 11
01:44:03.362 : en:Chapter 12
01:57:32.587 : en:Chapter 13
02:00:59.835 : en:Chapter 14
02:05:42.076 : en:Chapter 15
02:13:06.937 : en:Chapter 16
Скріншоти









Джерело: &
Особиста оцінка: 10 - без зайвих вагань рекомендую всім!

Подяка за доріжки панам: slavik_v_z, taraskill1, karvai0, Romario_O, Sando7


Золотий реліз (завантажене не впливає на рейтинг)
 Трекер:    Зареєстрований   

Завантажити / скачати фільм українською



відео для новачків



 Зареєстрований:   2019-04-10 16:57
 Розмір:   35.38 GB 
 Оцінка фільму:   9.9/10 (Голосів: 7)
   
Ваш часовий пояс: GMT + 2 Години

Нова тема   Відповісти