Завдання / The Assignment (1997) 720p Ukr/Eng | Sub Eng

Нові коментарі

Нова тема   Відповісти
Автор Повідомлення
Anonymous 







2019-04-10 09:48  
Завдання / The Assignment (1997) 720p Ukr/Eng | Sub Eng

Завдання / The Assignment (1997) 720p Ukr/Eng | Sub Eng


Жанр: трилер, кримінальний, бойовик
Країна: Канада



Кінокомпанія: Triumph Films, Allegro Films
Режисер: Крістіан Дюгей / Christian Duguay
Актори: Ейдан Квінн / Aidan Quinn, Дональд Сазерленд / Donald Sutherland, Бен Кінгслі / Ben Kingsley, Клаудіа Феррі / Claudia Ferri, Власта Врана / Vlasta Vrana, Ліліана Коморовська / Liliana Komorowska, Вон Флорес / Von Flores, Деніел Пілон / Daniel Pilon, Клод Женест / Claude Genest

Сюжет:
Ілліч Рамірес Санчес, «Шакал». Багато років цього імені було достатньо, щоб викликати страх у цілої країни. Професійний терорист з холодним розумом і безжалісним серцем. Міжнародний найманий вбивця, який отримував задоволення, від того, що вбивав невинних. Людина, від якої виходить зло і насильство. Йому завжди вдавалося втікти. Двадцять років ФБР і Моссад вважали його ціллю номер один. І кожен раз він вислизав - як привид у ночі. Доти, поки не з'явився Еннібал Рамірес - офіцер флоту, люблячий чоловік і батько, в якого немає нічого спільного з Карлосом, крім одного - він як дві краплі води схожий на нього...


Тривалість: 01:58:59
Якість: 720p
Відео:
кодек:
розмір кадру: 1280x720
бітрейт: 5260 кб/с

Аудіо # 1:
мова: українська
переклад: двоголосий закадровий
кодек: 2.0 (з 5.1)
бітрейт: 192 кб/с

Аудіо # 2:
мова: англійська
переклад: оригінал
кодек: 5.1
бітрейт: 448 кб/с

Субтитри:
мова: англійська
тип: програмні (м'які)
формат: *.srt
Info
General
Unique ID : 207219655488531542969638959601625518915 (0x9BE50DD021DEE28C9192402833FAD343)
Complete name : H:\Toloka\2019\The Assignment (1997) 720p.
Format :
Format version : Version 4
File size : 4.90 GiB
Duration : 1 h 59 min
Overall bit rate : 5 897 kb/s
Encoded date : UTC 2019-04-10 06:42:48
Writing application : v6.1.0 ('Old Devil') built on Mar 4 2013 09:10:42
Writing library : libebml v1.3.0 + v1.4.0

Video
ID : 1
Format : AVC
Format/Info : Advanced Video Codec
Format profile : [email protected]
Format settings : CABAC / 9 Ref Frames
Format settings, CABAC : Yes
Format settings, RefFrames : 9 frames
Codec ID : V_MPEG4/ISO/AVC
Duration : 1 h 59 min
Bit rate : 5 260 kb/s
Width : 1 280 pixels
Height : 720 pixels
Display aspect ratio : 16:9
Frame rate mode : Constant
Frame rate : 23.976 (24000/1001) FPS
Color space : YUV
Chroma subsampling : 4:2:0
Bit depth : 8 bits
Scan type : Progressive
Bits/(Pixel*Frame) : 0.238
Stream size : 4.27 GiB (87%)
Writing library : core 146 r2538 121396c
Encoding settings : cabac=1 / ref=9 / deblock=1:-3:-3 / analyse=0x3:0x133 / me=umh / subme=11 / psy=1 / psy_rd=1.00:0.15 / mixed_ref=1 / me_range=32 / chroma_me=1 / trellis=2 / 8x8dct=1 / cqm=0 / deadzone=21,11 / fast_pskip=0 / chroma_qp_offset=-3 / threads=12 / lookahead_threads=3 / sliced_threads=0 / nr=0 / decimate=0 / interlaced=0 / bluray_compat=0 / constrained_intra=0 / bframes=9 / b_pyramid=2 / b_adapt=2 / b_bias=0 / direct=3 / weightb=1 / open_gop=0 / weightp=2 / keyint=240 / keyint_min=23 / scenecut=40 / intra_refresh=0 / rc=2pass / mbtree=0 / bitrate=5260 / ratetol=1.0 / qcomp=0.60 / qpmin=0 / qpmax=69 / qpstep=4 / cplxblur=20.0 / qblur=0.5 / ip_ratio=1.40 / pb_ratio=1.30 / aq=3:1.00
Language : English
Default : Yes
Forced : No

Audio #1
ID : 2
Format : AC-3
Format/Info : Audio Coding 3
Commercial name : Dolby Digital
Codec ID : A_AC3
Duration : 1 h 59 min
Bit rate mode : Constant
Bit rate : 192 kb/s
Channel(s) : 2 channels
Channel layout : L R
Sampling rate : 48.0 kHz
Frame rate : 31.250 FPS (1536 SPF)
Bit depth : 16 bits
Compression mode : Lossy
Stream size : 163 MiB (3%)
Title : UKR (1+1)
Language : Ukrainian
Service kind : Complete Main
Default : Yes
Forced : Yes

Audio #2
ID : 3
Format : AC-3
Format/Info : Audio Coding 3
Commercial name : Dolby Digital
Codec ID : A_AC3
Duration : 1 h 59 min
Bit rate mode : Constant
Bit rate : 448 kb/s
Channel(s) : 6 channels
Channel layout : L R C LFE Ls Rs
Sampling rate : 48.0 kHz
Frame rate : 31.250 FPS (1536 SPF)
Bit depth : 16 bits
Compression mode : Lossy
Stream size : 381 MiB (8%)
Title : ENG
Language : English
Service kind : Complete Main
Default : No
Forced : No

Text
ID : 4
Format : UTF-8
Codec ID : S_TEXT/UTF8
Codec ID/Info : UTF-8 Plain Text
Language : English
Default : No
Forced : No
Скріншоти








За українську доріжку подяка п.: Merdiff, Lan
Особиста подяка пану denixx за надану матеріальну допомогу на підтримку цього і майбутніх релізів.
Джерело:


Срібний реліз (на рейтинг впливає 50% завантаженого)
 Трекер:    Зареєстрований   

Завантажити / скачати фільм українською



відео для новачків



 Зареєстрований:   2019-04-10 09:48
 Розмір:   4.9 GB 
 Оцінка фільму:   10/10 (Голосів: 3)
   
Інші релізи
   Завдання / The Assignment (1997) Ukr/Eng | Sub Eng Lan  4 / 0   2.18 GB   2011-10-27 21:50 
0mage0 
VIP


З нами з: 06.10.15
Востаннє: 23.04.19
Повідомлень: 458

2019-04-11 22:13  
"До тих пір" -> доти
Ваш часовий пояс: GMT + 2 Години

Нова тема   Відповісти