Скло / Glass (2019) UHD mini 2160p 4K HDR H.265 Ukr/Eng | Sub Eng/Fra/Spa

Нові коментарі

Нова тема   Відповісти
Автор Повідомлення
Anonymous 







2019-04-08 13:07  
Скло / Glass (2019) UHD mini 2160p 4K HDR H.265 Ukr/Eng | Sub Eng/Fra/Spa

Скло / Glass (2019) UHD mini 2160p 4K HDR H.265 Ukr/Eng | Sub Eng/Fra/Spa


Жанр: драма, трилер, фантастика
Країна: США



Кінокомпанія: Universal Pictures, Blinding Edge Pictures, Blumhouse Productions
Режисер: М. Найт Ш'ямалан
Актори: Джеймс МакЕвой, Брюс Вілліс, Семюел Л. Джексон, Аня Тейлор-Джой, Сара Полсон, Спенсер Тріт Кларк, Чарлейн Вудард, Люк Кірбі, М. Найт Ш'ямалан

Сюжет:
Сиквел до «Невразливого» та «Спліту». Викрадач з численним розладом особистості і терорист-інвалід «Містер Скло» виходять на своїх давніх супротивників - травмовану дівчинку-підлітка Кейсі і старіючого супергероя Девіда Данна.


Тривалість: 02:09:02
Якість: UHD mini 2160p
Відео:
кодек: H.265
розмір кадру: 3840 x 1600
бітрейт: 15,5 Мб/с

Аудіо # 1:
мова: українська
переклад: професійний дубльований
кодек: 2.0
бітрейт: 192 кб/с

Аудіо # 2:
мова: англійська
переклад: оригінал
кодек: TrueHD+Atmos 7.1
бітрейт: 4109 кб/с

Аудіо # 3:
мова: англійська
переклад: оригінал
кодек: 5.1
бітрейт: 448 кб/с

Субтитри:
мова: англійська
тип: пререндерні
формат: *.pgs

Субтитри:
мова: французька
тип: пререндерні
формат: *.pgs

Субтитри:
мова: іспанська
тип: пререндерні
формат: *.pgs
Info
General
Unique ID : 236710254104920296369338381537043846884 (0xB214BC9540BACDEDACAC2F951A3096E4)
Complete name : Glass 2019.UHD.BluRay.2160p.HDR.HEVC.UKR.ENG.
Format :
Format version : Version 4
File size : 18.3 GiB
Duration : 2 h 9 min
Overall bit rate mode : Variable
Overall bit rate : 20.4 Mb/s
Encoded date : UTC 2019-04-07 18:55:59
Writing application : v8.3.0 ('Over the Horizon') 64bit
Writing library : libebml v1.3.1 + v1.4.2

Video
ID : 1
Format : HEVC
Format/Info : High Efficiency Video Coding
Commercial name : HDR10
Format profile : Main [email protected]@High
Codec ID : V_MPEGH/ISO/HEVC
Duration : 2 h 9 min
Bit rate : 15.5 Mb/s
Width : 3 840 pixels
Height : 1 600 pixels
Display aspect ratio : 2.40:1
Frame rate mode : Constant
Frame rate : 23.976 (24000/1001) FPS
Color space : YUV
Chroma subsampling : 4:2:0
Bit depth : 10 bits
Bits/(Pixel*Frame) : 0.105
Stream size : 14.0 GiB (76%)
Language : English
Default : Yes
Forced : No
Color range : Limited
Color primaries : BT.2020
Transfer characteristics : PQ
Matrix coefficients : BT.2020 non-constant
Mastering display color primaries : Display P3
Mastering display luminance : min: 0.0001 cd/m2, max: 1000 cd/m2
Maximum Content Light Level : 457 cd/m2
Maximum Frame-Average Light Level : 182 cd/m2

Audio #1
ID : 2
Format : AC-3
Format/Info : Audio Coding 3
Commercial name : Dolby Digital
Codec ID : A_AC3
Duration : 2 h 9 min
Bit rate mode : Constant
Bit rate : 192 kb/s
Channel(s) : 2 channels
Channel layout : L R
Sampling rate : 48.0 kHz
Frame rate : 31.250 FPS (1536 SPF)
Bit depth : 16 bits
Compression mode : Lossy
Stream size : 177 MiB (1%)
Title : Line
Language : Ukrainian
Default : Yes
Forced : No

Audio #2
ID : 3
Format : MLP FBA 16-ch
Format/Info : Meridian Lossless Packing FBA with 16-channel presentation
Commercial name : Dolby TrueHD with Dolby Atmos
Codec ID : A_TRUEHD
Duration : 2 h 9 min
Bit rate mode : Variable
Bit rate : 4 109 kb/s
Maximum bit rate : 7 326 kb/s
Channel(s) : 8 channels
Channel layout : L R C LFE Ls Rs Lb Rb
Sampling rate : 48.0 kHz
Frame rate : 1 200.000 FPS (40 SPF)
Compression mode : Lossless
Stream size : 3.70 GiB (20%)
Title : TrueHD Atmos 7.1
Language : English
Default : No
Forced : No
Number of dynamic objects : 11
Bed channel count : 1 channel
Bed channel configuration : LFE

Audio #3
ID : 4
Format : AC-3
Format/Info : Audio Coding 3
Commercial name : Dolby Digital
Codec ID : A_AC3
Duration : 2 h 9 min
Bit rate mode : Constant
Bit rate : 448 kb/s
Channel(s) : 6 channels
Channel layout : L R C LFE Ls Rs
Sampling rate : 48.0 kHz
Frame rate : 31.250 FPS (1536 SPF)
Bit depth : 16 bits
Compression mode : Lossy
Stream size : 413 MiB (2%)
Title : 5.1
Language : English
Default : No
Forced : No

Text #1
ID : 5
Format : PGS
Muxing mode : zlib
Codec ID : S_HDMV/PGS
Codec ID/Info : Picture based subtitle format used on BDs/HD-DVDs
Duration : 2 h 2 min
Bit rate : 10.9 kb/s
Count of elements : 3130
Stream size : 9.58 MiB (0%)
Title : English (SDH)
Language : English
Default : No
Forced : No

Text #2
ID : 6
Format : PGS
Muxing mode : zlib
Codec ID : S_HDMV/PGS
Codec ID/Info : Picture based subtitle format used on BDs/HD-DVDs
Duration : 2 h 8 min
Bit rate : 7 853 b/s
Count of elements : 2457
Stream size : 7.22 MiB (0%)
Title : French
Language : French
Default : No
Forced : No

Text #3
ID : 7
Format : PGS
Muxing mode : zlib
Codec ID : S_HDMV/PGS
Codec ID/Info : Picture based subtitle format used on BDs/HD-DVDs
Duration : 2 h 8 min
Bit rate : 7 822 b/s
Count of elements : 2450
Stream size : 7.19 MiB (0%)
Title : Spanish (Latin American)
Language : Spanish
Default : No
Forced : No

Menu
00:00:00.000 : en:Chapter 01
00:04:08.457 : en:Chapter 02
00:09:36.367 : en:Chapter 03
00:14:30.078 : en:Chapter 04
00:19:49.897 : en:Chapter 05
00:24:41.063 : en:Chapter 06
00:29:45.826 : en:Chapter 07
00:35:00.598 : en:Chapter 08
00:39:07.595 : en:Chapter 09
00:47:28.220 : en:Chapter 10
00:57:16.224 : en:Chapter 11
01:02:55.271 : en:Chapter 12
01:09:26.829 : en:Chapter 13
01:14:30.299 : en:Chapter 14
01:21:43.774 : en:Chapter 15
01:30:10.530 : en:Chapter 16
01:38:15.515 : en:Chapter 17
01:44:08.742 : en:Chapter 18
01:54:07.215 : en:Chapter 19
02:03:00.290 : en:Chapter 20
Скріншоти


Джерело: &

Увага! Перед завантаженням переконайтесь, що ваш пристрій відтворення (та/або ПЗ) підтримує H.265 (HEVC)


 Трекер:    Зареєстрований   

Завантажити / скачати фільм українською



відео для новачків



 Зареєстрований:   2019-04-08 13:07
 Розмір:   18.34 GB 
 Оцінка фільму:   7.8/10 (Голосів: 10)
   
Інші релізи
   Скло / Glass (2019) UHD Remux 2160p 4K HDR H.265 Ukr/Eng kocyxuh  4 / 1   63.79 GB   2019-06-30 20:36 
   Скло / Glass (2019) 1080p H.265 Ukr/Eng | Sub Eng -Star-Lord-  13 / 0   8.05 GB   2019-05-19 13:32 
   Скло / Glass (2019) Remux 1080p Ukr/Eng | Sub Eng IronBee  4 / 0   30.76 GB   2019-05-18 19:28 
   Скло / Glass (2019) antik_2008  25 / 0   1.73 GB   2019-05-07 14:37 
   Скло / Glass (2019) 1080p Ukr/Eng | Sub Eng antik_2008  12 / 0   14.51 GB   2019-05-04 22:13 
   Скло / Glass (2019) AVC uafilm.tv  11 / 4   1.46 GB   2019-05-04 19:11 
   Скло / Glass (2019) 720p Ukr/Eng | Sub Eng 11FrYkT  24 / 3   5.77 GB   2019-05-04 19:03 
   Скло / Glass (2019) AVC Ukr/Eng | Sub Eng 11FrYkT  10 / 1   2.41 GB   2019-05-04 09:51 
   Скло / Glass (2019) Ukr/Eng Neo_Men  17 / 0   2.17 GB   2019-04-08 13:28 
11FrYkT 
Модератор відео


З нами з: 20.02.11
Востаннє: 10.12.19
Повідомлень: 6387

2019-04-09 10:02  
Anonymous написано:
Скло / Glass (2019) UHD 2160p Ukr/Eng | Sub Eng/Fra/Spa

в заголовках вказати що це міні, та дописати кодек
Також в темі вказати попередження про те що файл може не відтворитися (див. інші релізи з Н.265)

Anonymous написано:
формат: *.pjs

також формат сабів не такий

punkvalera 
Новенький


З нами з: 05.12.15
Востаннє: 16.11.19
Повідомлень: 4

2019-04-14 20:05  
А буде нормальне UHD Remux 2160p | 4K | HDR ?
Anonymous 







2019-04-15 15:59  
punkvalera Ця раздача - Роздають: [ 12 ]
Робити релiз ~ 67 Gb ... у мене немає стільки вільного місця на HDD .
Що б одному сидіти постійно на роздачі ...
З HDRezka є в мережі (рутор) , чи з rarbg - качаемо - ліпимо укр. доріжку ....

YurOK_88 
Новенький


З нами з: 26.09.18
Востаннє: 09.12.19
Повідомлень: 10

2019-06-23 17:26  
Філь не сподобався, за якість і переклад вдячний але перегляд не рекомедую..
Ваш часовий пояс: GMT + 2 Години

Нова тема   Відповісти