Охоронець / The Sentinel (2006) 1080p 2xUkr/Eng | Sub Eng

Нові коментарі

Нова тема   Відповісти
Автор Повідомлення
Anonymous 







2019-04-08 09:44  
Охоронець / The Sentinel (2006) 1080p 2xUkr/Eng | Sub Eng

Охоронець / The Sentinel (2006) 1080p 2xUkr/Eng | Sub Eng


Жанр: бойовик, кримінальний, трилер
Країна: США



Кінокомпанія: 20th Century Fox Regency Enterprises
Режисер: Кларк Джонсон
Актори: Майкл Дуґлас, Кіфер Сазерленд, Єва Лонґорія, Мартін Донован, Річі Костер, Кім Бейсінґер, Блер Браун, Девід Раш, Крістін Леман, Рейнор Шайні

Сюжет:
Спеціальний агент Піт Гаррісон переконаний, що в Білому Домі завівся зрадник. Його теорія знаходить підтвердження після вбивства одного з охоронців президента. Проте підозра падає на самого Гаррісона. Його усувають від справ, і до всього іншого ставлять у вину зв'язок з першою леді. Життя президентської сім'ї в небезпеці. Намагаючись знайти зрадника, Гаррісон вимушений воювати з системою, яку він сам створив.


Тривалість: 01:48:00
Якість:
Відео:
кодек:
розмір кадру: 1920х800
бітрейт: 11.6 Мб/с

Аудіо # 1:
мова: українська
переклад: багатоголосий закадровий
кодек: 2.0
бітрейт: 192 кб/с

Аудіо # 2:
мова: українська
переклад: багатоголосий закадровий
кодек: 5.1
бітрейт: 384 кб/с

Аудіо # 3:
мова: англійська
переклад: оригінал
кодек: 5.1
бітрейт: 1 509 кб/с

Субтитри:
мова: англійська
тип: програмні (м'які)
формат: *.srt
Info
General
Unique ID : 197092760749296562484845793211017499959 (0x9446AF5A83E275D8A34A57C7DC729537)
Complete name : H:\Toloka\2019\The Sentinel (2006) 1080p.
Format :
Format version : Version 4
File size : 10.6 GiB
Duration : 1 h 48 min
Overall bit rate : 14.0 Mb/s
Encoded date : UTC 2019-04-08 06:25:28
Writing application : v6.1.0 ('Old Devil') built on Mar 4 2013 09:10:42
Writing library : libebml v1.3.0 + v1.4.0

Video
ID : 1
Format : AVC
Format/Info : Advanced Video Codec
Format profile : [email protected]
Format settings : CABAC / 4 Ref Frames
Format settings, CABAC : Yes
Format settings, RefFrames : 4 frames
Codec ID : V_MPEG4/ISO/AVC
Duration : 1 h 48 min
Bit rate : 11.6 Mb/s
Width : 1 920 pixels
Height : 800 pixels
Display aspect ratio : 2.40:1
Frame rate mode : Constant
Frame rate : 23.976 (24000/1001) FPS
Color space : YUV
Chroma subsampling : 4:2:0
Bit depth : 8 bits
Scan type : Progressive
Bits/(Pixel*Frame) : 0.316
Stream size : 8.79 GiB (83%)
Writing library : core 146 r2538 121396c
Encoding settings : cabac=1 / ref=4 / deblock=1:-3:-2 / analyse=0x3:0x113 / me=umh / subme=11 / psy=1 / psy_rd=1.00:0.15 / mixed_ref=1 / me_range=32 / chroma_me=1 / trellis=2 / 8x8dct=1 / cqm=0 / deadzone=21,11 / fast_pskip=0 / chroma_qp_offset=-3 / threads=6 / lookahead_threads=1 / sliced_threads=0 / nr=0 / decimate=1 / interlaced=0 / bluray_compat=0 / constrained_intra=0 / bframes=6 / b_pyramid=2 / b_adapt=2 / b_bias=0 / direct=1 / weightb=1 / open_gop=0 / weightp=2 / keyint=230 / keyint_min=23 / scenecut=40 / intra_refresh=0 / rc_lookahead=40 / rc=crf / mbtree=0 / crf=17.7 / qcomp=0.60 / qpmin=0 / qpmax=69 / qpstep=4 / vbv_maxrate=62500 / vbv_bufsize=78125 / crf_max=0.0 / nal_hrd=none / filler=0 / ip_ratio=1.40 / pb_ratio=1.30 / aq=1:1.00
Language : English
Default : Yes
Forced : No

Audio #1
ID : 2
Format : AC-3
Format/Info : Audio Coding 3
Commercial name : Dolby Digital
Codec ID : A_AC3
Duration : 1 h 48 min
Bit rate mode : Constant
Bit rate : 192 kb/s
Channel(s) : 2 channels
Channel layout : L R
Sampling rate : 48.0 kHz
Frame rate : 31.250 FPS (1536 SPF)
Bit depth : 16 bits
Compression mode : Lossy
Stream size : 148 MiB (1%)
Title : UKR (2+2)
Language : Ukrainian
Service kind : Complete Main
Default : Yes
Forced : Yes

Audio #2
ID : 3
Format : AC-3
Format/Info : Audio Coding 3
Commercial name : Dolby Digital
Codec ID : A_AC3
Duration : 1 h 48 min
Bit rate mode : Constant
Bit rate : 384 kb/s
Channel(s) : 6 channels
Channel layout : L R C LFE Ls Rs
Sampling rate : 48.0 kHz
Frame rate : 31.250 FPS (1536 SPF)
Bit depth : 16 bits
Compression mode : Lossy
Delay relative to video : 3 ms
Stream size : 297 MiB (3%)
Title : UKR (ICTV)
Language : Ukrainian
Service kind : Complete Main
Default : No
Forced : No

Audio #3
ID : 4
Format :
Format/Info : Digital Theater Systems
Codec ID : A_DTS
Duration : 1 h 48 min
Bit rate mode : Constant
Bit rate : 1 509 kb/s
Channel(s) : 6 channels
Channel layout : C L R Ls Rs LFE
Sampling rate : 48.0 kHz
Frame rate : 93.750 FPS (512 SPF)
Bit depth : 24 bits
Compression mode : Lossy
Stream size : 1.14 GiB (11%)
Title : ENG
Language : English
Default : No
Forced : No

Text
ID : 5
Format : UTF-8
Codec ID : S_TEXT/UTF8
Codec ID/Info : UTF-8 Plain Text
Title : ENG
Language : English
Default : No
Forced : No

Menu
00:00:00.000 : en:Chapter 01
00:08:20.333 : en:Chapter 02
00:18:22.351 : en:Chapter 03
00:29:09.747 : en:Chapter 04
00:38:38.816 : en:Chapter 05
00:48:13.557 : en:Chapter 06
00:58:16.534 : en:Chapter 07
01:07:35.760 : en:Chapter 08
01:20:31.743 : en:Chapter 09
01:25:40.677 : en:Chapter 10
01:32:00.473 : en:Chapter 11
01:43:28.124 : en:Chapter 12
Скріншоти






Подяка за наданий звук з каналу ICTV п. Konfucius
Подяка за наданий постер п. Лайка Добра
За запис звуку з каналу 2+2 дякуємо пану Bohdan237
Особиста подяка пану denixx за надану матеріальну допомогу на підтримку цього і майбутніх релізів.
Джерело:


 Трекер:    Зареєстрований   

Завантажити / скачати фільм українською



відео для новачків



 Зареєстрований:   2019-04-08 09:44
 Розмір:   10.58 GB 
 Оцінка фільму:   9.4/10 (Голосів: 7)
   
Інші релізи
   Охоронець / The Sentinel (2006) AVC Ukr/Eng | Sub Eng Загора  2 / 0   2.38 GB   2016-03-02 16:03 
   Охоронець / The Sentinel (2006) 720p Ukr/Eng | Sub Eng Загора  4 / 0   4.43 GB   2016-03-02 16:02 
   Охоронець / The Sentinel (2006) Ukr/Eng MasterYura  4 / 0   2.14 GB   2010-05-12 21:07 
Ваш часовий пояс: GMT + 2 Години

Нова тема   Відповісти