Загублене і знайдене / Lost & Found (1999) 720p Ukr/Eng | Sub Eng

Нові коментарі

Нова тема   Відповісти
Останній раз роздавалося Nic_kr (2019-12-06)
Автор Повідомлення
Anonymous 







2019-04-08 06:42  
Загублене і знайдене / Lost & Found (1999) 720p Ukr/Eng | Sub Eng

Загублене і знайдене / Lost & Found (1999) 720p Ukr/Eng | Sub Eng


Жанр: комедія, романтичний
Країна: США



Кінокомпанія: Alcon Entertainment, Dinamo Entertainment
Режисер: Jeff Pollack
Актори: Девід Спейд, Софі Марсо, Патрік Брюель, Арті Ленж, Мітчел Вітфілд, Крістіан Клеменсон, Естель Харіс, Марла Гібс

Сюжет:
Ділан Рамсі "пливе за течією" до моменту зустрічі з чарівною французькою сусідкою. І для того, щоб справити враження на красуню, Ділан цупить її собаку, щоб повернувши згодом, стати героєм в її очах. Проте на жаль, справи не завжди йдуть за планом.


Тривалість: 01:39:40
Якість: 720p

Відео:
кодек:
розмір кадру: 1280 х 712
бітрейт: 4098 кб/с

Аудіо # 1:
мова: українська
переклад: двоголосий закадровий
кодек: 2.0
бітрейт: 192 кб/с

Аудіо # 2:
мова: англійська
переклад: оригінал
кодек: 5.1
бітрейт: 384 кб/с

Субтитри:
мова: англійська
тип: програмні (м'які)
формат: *.srt
Info
General
Unique ID : 231050084606642124585031857639214732857 (0xADD2A0AE4E971A5ACE2EB717EFCAD639)
Complete name : G:\HD Films\Lost And Found (1999) 720p [ukr.eng] Hurtom.
Format :
Format version : Version 4
File size : 3.26 GiB
Duration : 1 h 39 min
Overall bit rate : 4 677 kb/s
Movie name : Lost.And.Found.1999.720p..DD5.1.H264-FGT
Encoded date : UTC 2019-04-08 04:32:54
Writing application : v32.0.0 ('Astral Progressions') 64-bit
Writing library : libebml v1.3.7 + v1.5.0

Video
ID : 1
Format : AVC
Format/Info : Advanced Video Codec
Format profile : [email protected]
Format settings : 2 Ref Frames
Format settings, CABAC : No
Format settings, ReFrames : 2 frames
Format settings, GOP : N=1
Codec ID : V_MPEG4/ISO/AVC
Duration : 1 h 39 min
Bit rate : 4 098 kb/s
Width : 1 280 pixels
Height : 712 pixels
Display aspect ratio : 16:9
Frame rate mode : Constant
Frame rate : 23.976 (23976/1000) FPS
Color space : YUV
Chroma subsampling : 4:2:0
Bit depth : 8 bits
Scan type : Progressive
Bits/(Pixel*Frame) : 0.188
Stream size : 2.85 GiB (88%)
Title : Lost And Found 1999 720p
Language : English
Default : Yes
Forced : No
Color range : Limited
Color primaries : BT.709
Transfer characteristics : BT.709
Matrix coefficients : BT.709

Audio #1
ID : 2
Format : AC-3
Format/Info : Audio Coding 3
Commercial name : Dolby Digital
Codec ID : A_AC3
Duration : 1 h 39 min
Bit rate mode : Constant
Bit rate : 192 kb/s
Channel(s) : 2 channels
Channel layout : L R
Sampling rate : 48.0 kHz
Frame rate : 31.250 FPS (1536 SPF)
Bit depth : 16 bits
Compression mode : Lossy
Stream size : 137 MiB (4%)
Title : Novy channel
Language : Ukrainian
Service kind : Complete Main
Default : Yes
Forced : No

Audio #2
ID : 3
Format : AC-3
Format/Info : Audio Coding 3
Commercial name : Dolby Digital
Codec ID : A_AC3
Duration : 1 h 39 min
Bit rate mode : Constant
Bit rate : 384 kb/s
Channel(s) : 6 channels
Channel layout : L R C LFE Ls Rs
Sampling rate : 48.0 kHz
Frame rate : 31.250 FPS (1536 SPF)
Bit depth : 16 bits
Compression mode : Lossy
Stream size : 274 MiB (8%)
Title : Original
Language : English
Service kind : Complete Main
Default : No
Forced : No

Text
ID : 4
Format : UTF-8
Codec ID : S_TEXT/UTF8
Codec ID/Info : UTF-8 Plain Text
Duration : 1 h 38 min
Bit rate : 78 b/s
Count of elements : 2310
Stream size : 56.7 KiB (0%)
Language : English
Default : Yes
Forced : No

Menu
00:00:00.000 : en:Breaking up...
00:03:00.000 : en:Credits.
00:07:54.000 : en:Strip poker.
00:12:45.000 : en:Neighborly gestures.
00:15:51.000 : en:Getting pianistic.
00:18:36.000 : en:Pizza refused.
00:22:28.000 : en:Roommates.
00:26:35.000 : en:Cheering Lila up.
00:30:50.000 : en:Bad dog.
00:33:15.000 : en:Pooper scooper.
00:35:00.000 : en:Bunkmates.
00:37:58.000 : en:Local vs. imported.
00:41:21.000 : en:Where he wants her.
00:44:12.000 : en:Get it? Got it?...
00:47:26.000 : en:Dylan's problem.
00:52:03.000 : en:Picture this.
00:54:16.000 : en:Triumph/Bowl.
00:59:29.000 : en:Dog whisperer.
01:02:40.000 : en:Rene dogs Dylan.
01:07:07.000 : en:Hound found.
01:10:11.000 : en:Party on/off.
01:13:44.000 : en:Baby-stepping out.
01:18:01.000 : en:Real/fake diamond.
01:20:10.000 : en:Real/fake Diamond.
01:24:52.000 : en:The unheroic truth.
01:26:50.000 : en:Sincere-sounding.
01:30:15.000 : en:Back at the Bowl.
01:34:20.000 : en:Rene gets it.
01:35:10.000 : en:End Credits.
Скріншоти










Джерело: &


Срібний реліз (на рейтинг впливає 50% завантаженого)
 Трекер:    Зареєстрований   

Завантажити / скачати фільм українською



відео для новачків



 Зареєстрований:   2019-04-08 06:42
 Розмір:   3.26 GB 
 Оцінка фільму:   9.8/10 (Голосів: 5)
   
Інші релізи
   Загублене і знайдене / Lost & Found (1999) sokeel  0 / 0   1.32 GB   2019-03-31 14:02 
   Загублене і знайдене / Lost & Found (1999) AVC bodia87  6 / 0   1.38 GB   2019-03-29 06:57 
Ваш часовий пояс: GMT + 2 Години

Нова тема   Відповісти