Моя бабуся Фані Каплан / My Grandmother Fanny Kaplan (2016) 720p

Нові коментарі

Нова тема   Відповісти
Автор Повідомлення
Anonymous 







2019-04-07 13:14  
Моя бабуся Фані Каплан / My Grandmother Fanny Kaplan (2016) 720p



Жанр: драма, історичний
Країна: Україна



Кінокомпанія: Гагарін Медіа за підтримки Державного агентства України з питань кіно
Режисер: Олена Дем'яненко
Актори: Катерина Молчанова, Мирослав Слабошпицький, Іван Бровін, Олексій Девотченко, Наталія Нікуленко, Роман Ширман, Вікторія Трофіменко, Ганна Донченко, Влад Троїцький, Марина Кукліна-Май та інші.

Сюжет: Прониклива і зворушлива історія кохання Фані Каплан, яка розгортається на тлі революційних подій початку ХХ століття. Всепоглинальне почуття юної і недосвідченої Фанні до революціонера Гарського штовхає її на відчайдушні вчинки, що в підсумку обертається неминучою трагедією...

Тривалість: 01:44:57
Якість: 720p
Відео:
кодек:
розмір кадру: 1280х720
бітрейт: 3850 кб/с

Аудіо:
мова: українська
переклад: оригінал
кодек: 2.0
бітрейт: 256 кб/с

Info
Код:
Complete name               : My Grandmother Fanny Kaplan (2016) 720p [Hurtom].
Format                      :
Format version              : Version 4
File size                   : 3.01 GiB
Duration                    : 1 h 44 min
Overall bit rate            : 4 108 kb/s
Encoded date                : UTC 2019-04-07 09:54:34
Writing application         : v29.0.0 ('Like It Or Not') 64-bit
Writing library             : libebml v1.3.6 + v1.4.9

Video
ID                          : 1
Format                      : AVC
Format/Info                 : Advanced Video Codec
Format profile              : [email protected]
Format settings             : 2 Ref Frames
Format settings, CABAC      : No
Format settings, ReFrames   : 2 frames
Format settings, GOP        : M=1, N=72
Codec ID                    : V_MPEG4/ISO/AVC
Duration                    : 1 h 44 min
Bit rate                    : 3 850 kb/s
Width                       : 1 280 pixels
Height                      : 720 pixels
Display aspect ratio        : 16:9
Frame rate mode             : Constant
Frame rate                  : 24.000 FPS
Color space                 : YUV
Chroma subsampling          : 4:2:0
Bit depth                   : 8 bits
Scan type                   : Progressive
Bits/(Pixel*Frame)          : 0.174
Stream size                 : 2.82 GiB (94%)
Language                    : Ukrainian
Default                     : Yes
Forced                      : No
Color range                 : Limited
Color primaries             : BT.709
Transfer characteristics    : BT.709
Matrix coefficients         : BT.709

Audio
ID                          : 2
Format                      : LC
Format/Info                 : Advanced Audio Codec Low Complexity
Codec ID                    : A_AAC-2
Duration                    : 1 h 44 min
Bit rate                    : 256 kb/s
Channel(s)                  : 2 channels
Channel layout              : L R
Sampling rate               : 48.0 kHz
Frame rate                  : 46.875 FPS (1024 SPF)
Compression mode            : Lossy
Stream size                 : 192 MiB (6%)
Language                    : Ukrainian
Default                     : Yes
Forced                      : No
Джерело:


Золотий реліз (завантажене не впливає на рейтинг)
 Трекер:    Зареєстрований   

Завантажити / скачати український фільм



відео для новачків



 Зареєстрований:   2019-04-07 13:14
 Розмір:   3.01 GB 
 Оцінка фільму:   7.8/10 (Голосів: 27)
   
leicheman 
Відео Гуртом - фільмокрай
Відео Гуртом - фільмокрай


З нами з: 03.07.14
Востаннє: 02.03.21
Повідомлень: 5932

2019-04-07 13:29  
Anonymous написано:

Судячи по МІ то WEB - DL

Anonymous 







2019-04-07 18:50  
leicheman, не був певний щодо якості, та знайшов на толоці релізи з подібними параметрами, підписані вебріпами. Якщо модератори вважатимуть за потрібне - оновлю торент.
hetzendorf 
Забанено
Забанено


З нами з: 23.07.15
Востаннє: 05.01.21
Повідомлень: 2966

2019-07-28 01:04  
Дуже неправдоподібна історія із тією «родинною легендою», що розповідає ота старенька нібито «онучка Фанні Каплан». Якщо Фанні народила на етапі до Акатуйської каторжної в'язниці, чому вона не розшукувала власну дитину? Чому цей момент пройшов поза увагою авторів фільму, тоді як уся енергія Фанні на їхню думку була спрямована на переслідування Гарського?

Сцену страти знято за описом у журналі «Огоньок» 1989, № 30, с. 27.

В історичному плані нічого нового фільм не дає, навпаки усе ще більш заплутує, тим самим підвищуючи ентропію.
6/10

maric 
Забанено
Забанено


З нами з: 23.10.12
Востаннє: 08.02.21
Повідомлень: 10

2019-08-13 10:22  
Бюджет-$ 1 286 000 ...
Ваш часовий пояс: GMT + 2 Години

Нова тема   Відповісти