Тяжкі гроші (Run for the Money, In God We Trust) / Hard Cash (2002) 720p 2xUkr/Eng | sub Eng

Нові коментарі

Нова тема   Відповісти
Автор Повідомлення
Anonymous 







2019-04-07 14:09  
Тяжкі гроші / Hard Cash (2002) 720p 2xUkr/Eng | sub Eng

Тяжкі гроші (Run for the Money, In God We Trust) / Hard Cash (2002) 720p 2xUkr/Eng | sub Eng


Жанр: бойовик, трилер, кримінальний
Країна: США



Кінокомпанія: City Heat Productions / Millennium Films / Canyon Productions / DEJ Productions / Emmett/Furla/Nittolo Films / Nu-Image Films
Режисер: Предраг Антонієвич
Актори: Крістіан Слейтер, Вел Кілмер, Сара Доунінг, Бальтазар Гетті та інші

Сюжет:
Відсидівши термін, на свободу виходить знаменитий злодій Томас Тейлор, якому потрібно розім'ятися і підзаробити після вимушеного відпочинку. Разом зі своїми надійними напарниками він грабує букмекерську контору, але незабаром радість переміняється досадою - гроші мічені, а на порозі вже стоїть заповзятливий агент ФБР Корнелл, шантажем змушує безстрашну команду пограбувати для нього інкасаторський фургон. Тейлор погоджується провернути цю ризиковану операцію і розробляє геніальний план, який не може зірватися, адже на кону стоїть не тільки його свобода, а й життя його дочки, що стала заручницею жорстокого Корнелла ...


Тривалість: 01:38:22
Якість: 720p

Відео:
кодек:
розмір кадру: 1280 х 718
бітрейт: 4052 кб/с

Аудіо # 1:
мова: українська
переклад: двоголосий закадровий
кодек: 2.0
бітрейт: 192 кб/с

Аудіо # 2:
мова: українська
переклад: двоголосий закадровий
кодек: 2.0
бітрейт: 192 кб/с

Аудіо # 3:
мова: англійська
переклад: оригінал
кодек: 5.1
бітрейт: 448 кб/с

Субтитри:
мова: англійська
тип: програмні (м'які)
формат: *.srt
Info
General
Unique ID : 241019529720722698465197483044207276703 (0xB552AC46434E0F985F9E05F52A07329F)
Complete name : E:\films\Hard Cash (2002) 720p [2xukr.eng] Hurtom.
Format :
Format version : Version 4
File size : 3.36 GiB
Duration : 1 h 38 min
Overall bit rate : 4 886 kb/s
Encoded date : UTC 2019-04-07 10:44:53
Writing application : v30.1.0 ('Forever And More') 64-bit
Writing library : libebml v1.3.6 + v1.4.9

Video
ID : 1
Format : AVC
Format/Info : Advanced Video Codec
Format profile : [email protected]
Format settings : 2 Ref Frames
Format settings, CABAC : No
Format settings, RefFrames : 2 frames
Codec ID : V_MPEG4/ISO/AVC
Duration : 1 h 38 min
Bit rate : 4 052 kb/s
Width : 1 280 pixels
Height : 718 pixels
Display aspect ratio : 16:9
Frame rate mode : Constant
Frame rate : 24.000 FPS
Color space : YUV
Chroma subsampling : 4:2:0
Bit depth : 8 bits
Scan type : Progressive
Bits/(Pixel*Frame) : 0.184
Stream size : 2.78 GiB (83%)
Language : English
Default : Yes
Forced : No
Color range : Limited
Color primaries : BT.709
Transfer characteristics : BT.709
Matrix coefficients : BT.709

Audio #1
ID : 2
Format : AC-3
Format/Info : Audio Coding 3
Commercial name : Dolby Digital
Codec ID : A_AC3
Duration : 1 h 38 min
Bit rate mode : Constant
Bit rate : 192 kb/s
Channel(s) : 2 channels
Channel layout : L R
Sampling rate : 48.0 kHz
Frame rate : 31.250 FPS (1536 SPF)
Bit depth : 16 bits
Compression mode : Lossy
Stream size : 135 MiB (4%)
Title : TBI channel (DVO)
Language : Ukrainian
Service kind : Complete Main
Default : Yes
Forced : No

Audio #2
ID : 3
Format : AC-3
Format/Info : Audio Coding 3
Commercial name : Dolby Digital
Codec ID : A_AC3
Duration : 1 h 38 min
Bit rate mode : Constant
Bit rate : 192 kb/s
Channel(s) : 2 channels
Channel layout : L R
Sampling rate : 48.0 kHz
Frame rate : 31.250 FPS (1536 SPF)
Bit depth : 16 bits
Compression mode : Lossy
Stream size : 135 MiB (4%)
Title : 2+2 channel (DVO)
Language : Ukrainian
Service kind : Complete Main
Default : No
Forced : No

Audio #3
ID : 4
Format : AC-3
Format/Info : Audio Coding 3
Commercial name : Dolby Digital
Codec ID : A_AC3
Duration : 1 h 38 min
Bit rate mode : Constant
Bit rate : 448 kb/s
Channel(s) : 6 channels
Channel layout : L R C LFE Ls Rs
Sampling rate : 48.0 kHz
Frame rate : 31.250 FPS (1536 SPF)
Bit depth : 16 bits
Compression mode : Lossy
Stream size : 315 MiB (9%)
Language : English
Service kind : Complete Main
Default : No
Forced : No

Text
ID : 5
Format : UTF-8
Codec ID : S_TEXT/UTF8
Codec ID/Info : UTF-8 Plain Text
Duration : 1 h 33 min
Bit rate : 43 b/s
Count of elements : 933
Stream size : 29.8 KiB (0%)
Language : English
Default : Yes
Forced : No
Скріншоти











Джерело: &


Срібний реліз (на рейтинг впливає 50% завантаженого)
 Трекер:    Зареєстрований   

Завантажити / скачати фільм українською



відео для новачків



 Зареєстрований:   2019-04-07 14:09
 Розмір:   3.36 GB 
 Оцінка фільму:   10/10 (Голосів: 1)
   
Інші релізи
Ваш часовий пояс: GMT + 2 Години

Нова тема   Відповісти