Астерікс і таємне зілля / Astérix: Le secret de la potion magique (2018) 720p Ukr/Fre

Нові коментарі

Нова тема   Відповісти
Автор Повідомлення
-ПАН КОЦЬКИЙ- 
Свій


З нами з: 27.11.17
Востаннє: 26.02.21
Повідомлень: 82

2019-04-07 09:01  
Астерікс і таємне зілля / Astérix: Le secret de la potion magique (2018) 720p Ukr/Fre



Жанр: анімація, комедія, сімейний, фентезі
Країна: Франція



Кінокомпанія: Canal+, M6 Studio
Режисер: Александр Астьє, Луїс Кліши
Актори: Крістіан Клав'є, Ґійом Бріа, Алекс Лутц, Александр Астьє, Флоренс Форесті

Сюжет:
Якось збираючи омелу, старий досвідчений та поважний друїд Гетафікс падає з дерева. Пошкодивши ногу, він не може виконувати свій головний обов'язок – варити чудодійне зілля. Тож він вирішує відправитися через галльське озеро на пошуки молодого талановитого друїда, якому міг би передати свою майстерність. Разом з ним у цю подорож вирушать нерозлучні Астерікс і Обелікс. Самого ж друїда їм доведеться нести на собі.


Тривалість: 01:24:55
Якість: 720p
Відео:
кодек:
розмір кадру: 1280 х 536
бітрейт: 4768 кб/с

Аудіо # 1:
мова: українська
переклад: професійний дубльований
кодек: 5.1
бітрейт: 384 кб/с

Аудіо # 2:
мова: французька
переклад: оригінал
кодек: 5.1
бітрейт: 640 кб/с
Альтернативний постер:

Астерікс і таємне зілля / Astérix: Le secret de la potion magique (2018) 720p Ukr/Fre
Info
Format :
Format version : Version 4 / Version 2
File size : 3.43 GiB
Duration : 1 h 24 min
Overall bit rate : 5 788 kb/s
Movie name : Asterix Le Secret de la Potion Magique
Encoded date : UTC 2019-04-07 06:34:06
Writing application : v30.1.0 ('Forever And More') 64-bit
Writing library : libebml v1.3.6 + v1.4.9
Cover : Yes
Attachments : cover.astrix2019.jpg

Video
ID : 1
Format : AVC
Format/Info : Advanced Video Codec
Format profile : [email protected]
Format settings : CABAC / 12 Ref Frames
Format settings, CABAC : Yes
Format settings, ReFrames : 12 frames
Codec ID : V_MPEG4/ISO/AVC
Duration : 1 h 24 min
Bit rate : 4 768 kb/s
Width : 1 280 pixels
Height : 536 pixels
Display aspect ratio : 2.40:1
Frame rate mode : Constant
Frame rate : 24.000 FPS
Color space : YUV
Chroma subsampling : 4:2:0
Bit depth : 8 bits
Scan type : Progressive
Bits/(Pixel*Frame) : 0.290
Stream size : 2.82 GiB (82%)
Writing library : core 148 r2705kMod 3f5ed56
Encoding settings : cabac=1 / ref=12 / deblock=1:-2:-2 / analyse=0x3:0x133 / me=umh / subme=10 / psy=1 / fade_compensate=0.00 / psy_rd=1.20:0.05 / mixed_ref=1 / me_range=32 / chroma_me=1 / trellis=2 / 8x8dct=1 / cqm=0 / deadzone=21,11 / fast_pskip=0 / chroma_qp_offset=-3 / threads=12 / lookahead_threads=2 / sliced_threads=0 / nr=0 / decimate=0 / interlaced=0 / bluray_compat=0 / constrained_intra=0 / fgo=0 / bframes=8 / b_pyramid=2 / b_adapt=2 / b_bias=0 / direct=3 / weightb=1 / open_gop=0 / weightp=2 / keyint=240 / keyint_min=24 / scenecut=40 / intra_refresh=0 / rc_lookahead=50 / rc=2pass / mbtree=0 / bitrate=4768 / ratetol=1.0 / qcomp=0.60 / qpmin=0 / qpmax=51 / qpstep=4 / cplxblur=20.0 / qblur=0.5 / vbv_maxrate=50000 / vbv_bufsize=62500 / nal_hrd=none / filler=0 / ip_ratio=1.40 / pb_ratio=1.30 / aq=3:0.80
Language : French
Default : Yes
Forced : Yes

Audio #1
ID : 2
Format : AC-3
Format/Info : Audio Coding 3
Codec ID : A_AC3
Duration : 1 h 24 min
Bit rate mode : Constant
Bit rate : 384 kb/s
Channel(s) : 6 channels
Channel positions : Front: L C R, Side: L R, LFE
Sampling rate : 48.0 kHz
Frame rate : 31.250 FPS (1536 SPF)
Bit depth : 16 bits
Compression mode : Lossy
Stream size : 233 MiB (7%)
Title : iTunes
Language : Ukrainian
Service kind : Complete Main
Default : No
Forced : Yes

Audio #2
ID : 3
Format : AC-3
Format/Info : Audio Coding 3
Codec ID : A_AC3
Duration : 1 h 24 min
Bit rate mode : Constant
Bit rate : 640 kb/s
Channel(s) : 6 channels
Channel positions : Front: L C R, Side: L R, LFE
Sampling rate : 48.0 kHz
Frame rate : 31.250 FPS (1536 SPF)
Bit depth : 16 bits
Compression mode : Lossy
Stream size : 389 MiB (11%)
Title : Original
Language : French
Service kind : Complete Main
Default : No
Forced : No
Скріншоти
Джерело: &
Особиста оцінка: 10 - без зайвих вагань рекомендую всім!


 Трекер:    Зареєстрований   

Завантажити / скачати мультфільм українською



відео для новачків



 Зареєстрований:   2019-04-07 09:01
 Розмір:   3.43 GB 
 Оцінка мультфільму:   9.5/10 (Голосів: 48)
   
11FrYkT 
Модератор відео


З нами з: 20.02.11
Востаннє: 04.03.21
Повідомлень: 7152

2019-04-07 10:19  
-ПАН КОЦЬКИЙ- , а нічого що я писав що робитиму і сиджу тут кодую?
vovarodis 
Свій


З нами з: 12.09.14
Востаннє: 24.02.21
Повідомлень: 87

2020-01-17 15:03  
Класний мульт. 10/10
Ваш часовий пояс: GMT + 2 Години

Нова тема   Відповісти