Воїни світла / Daybreakers (2009) Remux 1080p 2xUkr/Eng | Sub Eng

Нові коментарі

Нова тема   Відповісти
Автор Повідомлення
IronBee 
Поважний учасник


З нами з: 08.02.10
Востаннє: 14.12.19
Повідомлень: 225

2019-04-06 21:49  
Воїни світла / Daybreakers (2009) Remux 1080p 2xUkr/Eng | Sub Eng

Воїни світла / Daybreakers (2009) Remux 1080p 2xUkr/Eng | Sub Eng
Альтернативні українські постери:





Жанр: жахи, фантастика, екшн
Країна: США, Австралія



Кінокомпанія: Lionsgate, Australian Film Finance Corporation (AFFC), Pictures in Paradise
Режисер: Майкл Спіріг
Актори: Ітан Гоук, Ізабель Лукас, Віллем Дефо, Клаудія Карван, Майкл Дорман, Джей Лагаая, Габріелла Ді Лабіо

Сюжет:
2017 рік. Глобальна епідемія перетворила більшість людей у вампірів, людство опинилося на межі вимирання. Однак, безтурботне майбутнє не світить і кровососам: в умовах дефіциту крові вони або змушені плекати кожну живу людську істоту, або синтезувати замінник крові. Протистояти кінцю світу намагається група вчених, яка шукає засоби боротьби проти вампірів.


Тривалість: 01:37:48
Якість: Remux
Відео:
кодек:
розмір кадру: 1920 х 1080
бітрейт: 21,9 Mб/с

Аудіо # 1:
мова: українська
переклад: двоголосий закадровий | Новий канал
кодек: 2.0
бітрейт: 192 кб/с

Аудіо # 2:
мова: українська
переклад: двоголосий закадровий | НТН
кодек: 2.0
бітрейт: 192 кб/с

Аудіо # 3:
мова: англійська
переклад: оригінал
кодек: -HD MA 7.1
бітрейт: 5431 кб/с

Субтитри:
мова: англійська (Повні,SDH)
тип: пререндерні
формат: *.pjs
Info
General
Unique ID : 338641826752911002090275162416304204433 (0xFEC40B1FF7CD3292E50DBAFD04C1AA91)
Complete name : D:\Films\Воїни світла Daybreakers (2009) Remux 1080p 2xUkrEng Sub Eng[Hurtom].
Format :
Format version : Version 4
File size : 19.0 GiB
Duration : 1 h 37 min
Overall bit rate mode : Variable
Overall bit rate : 27.8 Mb/s
Encoded date : UTC 2019-04-06 19:02:55
Writing application : v32.0.0 ('Astral Progressions') 64-bit
Writing library : libebml v1.3.7 + v1.5.0

Video
ID : 1
Format : AVC
Format/Info : Advanced Video Codec
Format profile : [email protected]
Format settings : CABAC / 4 Ref Frames
Format settings, CABAC : Yes
Format settings, ReFrames : 4 frames
Codec ID : V_MPEG4/ISO/AVC
Duration : 1 h 37 min
Bit rate mode : Variable
Bit rate : 21.9 Mb/s
Maximum bit rate : 34.5 Mb/s
Width : 1 920 pixels
Height : 1 080 pixels
Display aspect ratio : 16:9
Frame rate mode : Constant
Frame rate : 23.976 (24000/1001) FPS
Color space : YUV
Chroma subsampling : 4:2:0
Bit depth : 8 bits
Scan type : Progressive
Bits/(Pixel*Frame) : 0.441
Stream size : 15.0 GiB (79%)
Default : Yes
Forced : No
Color range : Limited
Color primaries : BT.709
Transfer characteristics : BT.709
Matrix coefficients : BT.709

Audio #1
ID : 2
Format : AC-3
Format/Info : Audio Coding 3
Commercial name : Dolby Digital
Codec ID : A_AC3
Duration : 1 h 37 min
Bit rate mode : Constant
Bit rate : 192 kb/s
Channel(s) : 2 channels
Channel layout : L R
Sampling rate : 48.0 kHz
Frame rate : 31.250 FPS (1536 SPF)
Bit depth : 16 bits
Compression mode : Lossy
Stream size : 134 MiB (1%)
Title : 2.0 192 кб/с двоголосий закадровий Новий канал
Language : Ukrainian
Service kind : Complete Main
Default : Yes
Forced : No

Audio #2
ID : 3
Format : AC-3
Format/Info : Audio Coding 3
Commercial name : Dolby Digital
Codec ID : A_AC3
Duration : 1 h 37 min
Bit rate mode : Constant
Bit rate : 192 kb/s
Channel(s) : 2 channels
Channel layout : L R
Sampling rate : 48.0 kHz
Frame rate : 31.250 FPS (1536 SPF)
Bit depth : 16 bits
Compression mode : Lossy
Stream size : 134 MiB (1%)
Title : 2.0 192 кб/с двоголосий закадровий НТН
Language : Ukrainian
Service kind : Complete Main
Default : No
Forced : No

Audio #3
ID : 4
Format : XLL
Format/Info : Digital Theater Systems
Commercial name : -HD Master Audio
Codec ID : A_DTS
Duration : 1 h 37 min
Bit rate mode : Variable
Bit rate : 5 431 kb/s
Channel(s) : 8 channels
Channel layout : C L R LFE Lb Rb Lss Rss
Sampling rate : 48.0 kHz
Frame rate : 93.750 FPS (512 SPF)
Bit depth : 24 bits
Compression mode : Lossless
Stream size : 3.71 GiB (20%)
Language : English
Default : No
Forced : No

Text #1
ID : 5
Format : PGS
Muxing mode : zlib
Codec ID : S_HDMV/PGS
Codec ID/Info : Picture based subtitle format used on BDs/HD-DVDs
Duration : 1 h 27 min
Bit rate : 22.2 kb/s
Count of elements : 1388
Stream size : 13.9 MiB (0%)
Language : English
Default : Yes
Forced : No

Text #2
ID : 6
Format : PGS
Muxing mode : zlib
Codec ID : S_HDMV/PGS
Codec ID/Info : Picture based subtitle format used on BDs/HD-DVDs
Duration : 1 h 29 min
Bit rate : 24.3 kb/s
Count of elements : 1569
Stream size : 15.5 MiB (0%)
Language : English
Default : No
Forced : No
Скріншоти




За доріжку від Нового дякую панам Neo777, MAKAPOHHIK та Skiff
Пану РОМЕО дякую за запис з каналу НТН, пану bilenkuyboy - за українізацію постерів, Arsenfpu - за роботу зі звуком.

Джерело: &
Особиста оцінка: 10 - без зайвих вагань рекомендую всім!


Золотий реліз (завантажене не впливає на рейтинг)
 Трекер:    Зареєстрований   

Завантажити / скачати фільм українською



відео для новачків



 Зареєстрований:   2019-04-06 21:49
 Розмір:   18.98 GB 
 Оцінка фільму:   9.5/10 (Голосів: 8)
   
Інші релізи
   Воїни світла / Daybreakers (2009) 1080p 2xUkr/Eng | Sub Eng drop_plz  5 / 0   7.91 GB   2018-08-12 09:16 
   Воїни світла / Daybreakers (2009) 2xUkr/Eng Arsenfpu  5 / 0   1.73 GB   2015-11-15 16:39 
   Воїни світла / Daybreakers (2009) 720p-mini Ukr/Eng | Sub Eng ThEO  0 / 0   2.37 GB   2011-07-25 12:08 
[email protected] 
VIP


З нами з: 24.03.17
Востаннє: 14.12.19
Повідомлень: 399

2019-11-25 23:52  
Може бути фільм, мені сподобався
Ваш часовий пояс: GMT + 2 Години

Нова тема   Відповісти