Ловець Карт Сакура / Картоловка Сакура / Cardcaptor Sakura (1998-2000) [70 з 70 + 2 Movies + 1 Special] 720р Jap | Ukr Sub

Нові коментарі

Нова тема   Відповісти
Автор Повідомлення
DEMO 
Свій


З нами з: 21.05.09
Востаннє: 28.02.20
Повідомлень: 116

2019-04-06 21:16  
Ловець Карт Сакура / Картоловка Сакура / Cardcaptor Sakura / カードキャプター さくら

Ловець Карт Сакура / Картоловка Сакура / Cardcaptor Sakura (1998-2000) [70 з 70 + 2 Movies + 1 Special] 720р Jap | Ukr Sub


Жанр: махо-шьоджьо, романтика, фентезі
Країна: Японія



Кінокомпанія: Madhouse
Режисер: Моріо Асака
Актори: Сакура Танґе, Джюнко Івао, Мотоко Кумай, Ая Хісакава, Томоказу Секі, Меґумі Оґата та ін.

Сюжет: Одного разу десятирічна школярка Сакура Кіномото в бібліотеці свого будинку знаходить книгу Clow з чарівними картами. Відкривши її, вона випустила карти на волю. За допомогою таємничої істоти — Охоронця Карт, Кербероса, що призначив Сакуру «Картоловкою», вона повинна зібрати всі зниклі карти, щоб запобігти Великій Катастрофі.


Технічні дані серіалу:
Тривалість: 1 серія: ~ 24:00 (цілком серій: 70)
Якість:
Відео:
кодек:
розмір кадру: 960×720
бітрейт: 2 881 кб/с

Аудіо:
мова: японська
переклад: оригінал
кодек: , 5.1
бітрейт: 1 595 кб/с
Info
General
Unique ID : 221186467456481229719570318163970142484 (0xA666F6CF0BB476FB9679B14BFC60B114)
Complete name : G:\CCS\Video\Cardcaptor Sakura\Cardcaptor Sakura - 01.
Format :
Format version : Version 4
File size : 801 MiB
Duration : 25 min 0 s
Overall bit rate mode : Variable
Overall bit rate : 4 480 kb/s
Movie name : Card Captor Sakura 01
Encoded date : UTC 2018-05-07 19:28:22
Writing application : v9.2.0 ('Photograph') 32bit
Writing library : libebml v1.3.3 + v1.4.4
Attachments : ClearfaceGothicLTStd-Roman.otf / Disney_Simple.ttf / DruagaQuorum.ttf / Gotham-Medium.ttf / Balzac-Regular.ttf

Video
ID : 1
Format : AVC
Format/Info : Advanced Video Codec
Format profile : High [email protected]
Format settings : CABAC / 16 Ref Frames
Format settings, CABAC : Yes
Format settings, ReFrames : 16 frames
Codec ID : V_MPEG4/ISO/AVC
Duration : 25 min 0 s
Bit rate : 2 881 kb/s
Width : 960 pixels
Height : 720 pixels
Display aspect ratio : 4:3
Frame rate mode : Constant
Frame rate : 23.976 (24000/1001) FPS
Color space : YUV
Chroma subsampling : 4:2:0
Bit depth : 10 bits
Scan type : Progressive
Bits/(Pixel*Frame) : 0.174
Stream size : 515 MiB (64%)
Title : Card Captor Sakura 01
Writing library : core 118
Encoding settings : cabac=1 / ref=16 / deblock=1:-2:-2 / analyse=0x3:0x133 / me=umh / subme=10 / psy=1 / psy_rd=0.70:0.10 / mixed_ref=1 / me_range=24 / chroma_me=1 / trellis=2 / 8x8dct=1 / cqm=0 / deadzone=21,11 / fast_pskip=1 / chroma_qp_offset=-3 / threads=36 / sliced_threads=0 / nr=0 / decimate=1 / interlaced=0 / bluray_compat=0 / constrained_intra=0 / bframes=8 / b_pyramid=2 / b_adapt=2 / b_bias=0 / direct=3 / weightb=1 / open_gop=0 / weightp=2 / keyint=250 / keyint_min=23 / scenecut=40 / intra_refresh=0 / rc_lookahead=60 / rc=crf / mbtree=1 / crf=18.0 / qcomp=0.60 / qpmin=0 / qpmax=81 / qpstep=4 / ip_ratio=1.40 / aq=1:1.20
Default : Yes
Forced : No

Audio
ID : 2
Format :
Format/Info : Free Lossless Audio Codec
Codec ID : A_FLAC
Duration : 25 min 0 s
Bit rate mode : Variable
Bit rate : 1 595 kb/s
Channel(s) : 6 channels
Channel layout : L R C LFE Ls Rs
Sampling rate : 48.0 kHz
Frame rate : 11.719 FPS (4096 SPF)
Bit depth : 16 bits
Compression mode : Lossless
Stream size : 285 MiB (36%)
Title : 5.1
Writing library : libFLAC 1.2.1 (UTC 2007-09-17)
Language : Japanese
Default : Yes
Forced : No

Menu
00:00:00.000 : en:Opening
00:01:20.580 : en:Episode
00:22:14.990 : en:Ending
00:23:25.017 : en:Preview
______________________________

Технічні дані першого фільму:
Тривалість: 01:21:34
Якість:
Відео:
кодек:
розмір кадру: 1280×720
бітрейт: 9 390 кб/с

Аудіо:
мова: японська
переклад: оригінал
кодек: , 5.1
бітрейт: 1 434 кб/с
Info
General
Unique ID : 220135803306722834846799246988420835506 (0xA59C9D1116EBCF489AEC9C035457E8B2)
Complete name : G:\CCS\Video\Cardcaptor Sakura\Cardcaptor Sakura Movie 1.
Format :
Format version : Version 4
File size : 6.19 GiB
Duration : 1 h 21 min
Overall bit rate mode : Variable
Overall bit rate : 10.9 Mb/s
Movie name : Cardcaptor Sakura Movie I
Encoded date : UTC 2018-09-30 16:50:02
Writing application : v9.2.0 ('Photograph') 32bit
Writing library : libebml v1.3.3 + v1.4.4

Video
ID : 1
Format : AVC
Format/Info : Advanced Video Codec
Format profile : High [email protected]
Format settings : CABAC / 16 Ref Frames
Format settings, CABAC : Yes
Format settings, ReFrames : 16 frames
Codec ID : V_MPEG4/ISO/AVC
Duration : 1 h 21 min
Bit rate : 9 390 kb/s
Width : 1 280 pixels
Height : 720 pixels
Display aspect ratio : 16:9
Frame rate mode : Constant
Frame rate : 23.976 (24000/1001) FPS
Color space : YUV
Chroma subsampling : 4:2:0
Bit depth : 10 bits
Scan type : Progressive
Bits/(Pixel*Frame) : 0.425
Stream size : 5.35 GiB (86%)
Title : Cardcaptor Sakura Movie I
Writing library : core 115 r2008+578 3864dbe
Encoding settings : cabac=1 / ref=16 / deblock=1:-2:-2 / analyse=0x3:0x133 / me=umh / subme=10 / psy=1 / fade_compensate=0.00 / psy_rd=0.70:0.10 / mixed_ref=1 / me_range=24 / chroma_me=1 / trellis=2 / 8x8dct=1 / cqm=0 / deadzone=21,11 / fast_pskip=1 / chroma_qp_offset=-3 / threads=9 / sliced_threads=0 / nr=0 / decimate=1 / interlaced=0 / bluray_compat=0 / constrained_intra=0 / fgo=0 / bframes=8 / b_pyramid=2 / b_adapt=2 / b_bias=0 / direct=3 / weightb=1 / open_gop=0 / weightp=2 / keyint=250 / keyint_min=23 / scenecut=40 / intra_refresh=0 / rc_lookahead=60 / rc=crf / mbtree=1 / crf=18.0 / qcomp=0.60 / qpmin=0 / qpmax=81 / qpstep=4 / ip_ratio=1.40 / aq=1:1.20
Default : Yes
Forced : No

Audio
ID : 2
Format :
Format/Info : Free Lossless Audio Codec
Codec ID : A_FLAC
Duration : 1 h 21 min
Bit rate mode : Variable
Bit rate : 1 434 kb/s
Channel(s) : 6 channels
Channel layout : L R C LFE Ls Rs
Sampling rate : 48.0 kHz
Frame rate : 11.719 FPS (4096 SPF)
Bit depth : 16 bits
Compression mode : Lossless
Stream size : 837 MiB (13%)
Title : 2.0
Writing library : libFLAC 1.2.1 (UTC 2007-09-17)
Language : Japanese
Default : Yes
Forced : No

Menu
00:00:00.000 : en:00:00:00.000
00:02:52.381 : en:00:02:52.381
00:03:02.391 : en:00:03:02.391
00:05:46.221 : en:00:05:46.221
00:07:40.919 : en:00:07:40.919
00:10:49.649 : en:00:10:49.649
00:14:32.955 : en:00:14:32.955
00:17:49.068 : en:00:17:49.068
00:19:34.799 : en:00:19:34.799
00:26:30.339 : en:00:26:30.339
00:30:23.989 : en:00:30:23.989
00:34:56.678 : en:00:34:56.678
00:37:27.287 : en:00:37:27.287
00:39:13.309 : en:00:39:13.309
00:40:49.656 : en:00:40:49.656
00:45:38.611 : en:00:45:38.611
00:53:20.197 : en:00:53:20.197
00:57:43.001 : en:00:57:43.001
01:00:55.360 : en:01:00:55.360
01:03:31.433 : en:01:03:31.433
01:05:53.992 : en:01:05:53.992
01:07:54.237 : en:01:07:54.237
01:11:37.752 : en:01:11:37.752
01:15:41.996 : en:01:15:41.996
01:21:33.931 : en:01:21:33.931
______________________________

Технічні дані другого фільму:
Тривалість: 01:32:31
Якість:
Відео:
кодек:
розмір кадру: 1280×720
бітрейт: 6 381 kb/s

Аудіо:
мова: японська
переклад: оригінал
кодек: , 5.1
бітрейт: 1 372 кб/с
Info

General
Unique ID : 191348989530280226476642935124617193104 (0x8FF4799180F413B8B8A37B52539DE690)
Complete name : G:\CCS\Video\Cardcaptor Sakura\Cardcaptor Sakura Movie 2.
Format :
Format version : Version 4
File size : 5.01 GiB
Duration : 1 h 32 min
Overall bit rate mode : Variable
Overall bit rate : 7 756 kb/s
Movie name : Card Captor Sakura Movie II
Encoded date : UTC 2018-11-12 21:22:35
Writing application : v9.2.0 ('Photograph') 32bit
Writing library : libebml v1.3.3 + v1.4.4

Video
ID : 1
Format : AVC
Format/Info : Advanced Video Codec
Format profile : High [email protected]
Format settings : CABAC / 16 Ref Frames
Format settings, CABAC : Yes
Format settings, ReFrames : 16 frames
Codec ID : V_MPEG4/ISO/AVC
Duration : 1 h 32 min
Bit rate : 6 381 kb/s
Width : 1 280 pixels
Height : 720 pixels
Display aspect ratio : 16:9
Frame rate mode : Constant
Frame rate : 23.976 (24000/1001) FPS
Color space : YUV
Chroma subsampling : 4:2:0
Bit depth : 10 bits
Scan type : Progressive
Bits/(Pixel*Frame) : 0.289
Stream size : 4.12 GiB (82%)
Title : Card Captor Sakura Movie II
Writing library : core 118
Encoding settings : cabac=1 / ref=16 / deblock=1:-2:-2 / analyse=0x3:0x133 / me=umh / subme=10 / psy=1 / psy_rd=0.70:0.10 / mixed_ref=1 / me_range=24 / chroma_me=1 / trellis=2 / 8x8dct=1 / cqm=0 / deadzone=21,11 / fast_pskip=1 / chroma_qp_offset=-3 / threads=9 / sliced_threads=0 / nr=0 / decimate=1 / interlaced=0 / bluray_compat=0 / constrained_intra=0 / bframes=8 / b_pyramid=2 / b_adapt=2 / b_bias=0 / direct=3 / weightb=1 / open_gop=0 / weightp=2 / keyint=250 / keyint_min=23 / scenecut=40 / intra_refresh=0 / rc_lookahead=60 / rc=crf / mbtree=1 / crf=18.0 / qcomp=0.60 / qpmin=0 / qpmax=81 / qpstep=4 / ip_ratio=1.40 / aq=1:1.20
Default : Yes
Forced : No

Audio
ID : 2
Format :
Format/Info : Free Lossless Audio Codec
Codec ID : A_FLAC
Duration : 1 h 32 min
Bit rate mode : Variable
Bit rate : 1 372 kb/s
Channel(s) : 6 channels
Channel layout : L R C LFE Ls Rs
Sampling rate : 48.0 kHz
Frame rate : 11.719 FPS (4096 SPF)
Bit depth : 16 bits
Compression mode : Lossless
Stream size : 908 MiB (18%)
Title : 5.1
Writing library : libFLAC 1.2.1 (UTC 2007-09-17)
Language : Japanese
Default : Yes
Forced : No

Menu
00:00:00.000 : en:00:00:00.000
00:01:16.285 : en:00:01:16.285
00:01:31.758 : en:00:01:31.758
00:07:07.177 : en:00:07:07.177
00:10:29.712 : en:00:10:29.712
00:12:12.148 : en:00:12:12.148
00:13:39.193 : en:00:13:39.193
00:16:46.214 : en:00:16:46.214
00:23:19.273 : en:00:23:19.273
00:25:32.030 : en:00:25:32.030
00:27:41.451 : en:00:27:41.451
00:29:02.449 : en:00:29:02.449
00:35:14.029 : en:00:35:14.029
00:41:10.093 : en:00:41:10.093
00:45:52.917 : en:00:45:52.917
00:48:43.212 : en:00:48:43.212
00:50:16.305 : en:00:50:16.305
00:52:32.149 : en:00:52:32.149
00:54:42.362 : en:00:54:42.362
01:00:50.605 : en:01:00:50.605
01:03:16.459 : en:01:03:16.459
01:05:32.095 : en:01:05:32.095
01:11:14.854 : en:01:11:14.854
01:15:31.652 : en:01:15:31.652
01:22:24.940 : en:01:22:24.940
01:32:31.546 : en:01:32:31.546
______________________________

Субтитри:
мова: українська
тип: програмні (м'які)
формат: *.
переклад: Gedet
Скріншоти до серіалу







Приклади з субтитрами:



Скріншоти до фільмів







Приклади з субтитрами:





Джерело: Coalgirls
Особиста оцінка: 10 — один із найкращих аніме-серіалів 1990-х років.


Золотий реліз (завантажене не впливає на рейтинг)
 Трекер:    Зареєстрований   

Завантажити / скачати аніме українською



відео для новачків



 Зареєстрований:   2019-04-06 21:16
 Розмір:   66.33 GB 
 Оцінка аніме:   10/10 (Голосів: 5)
   
11FrYkT 
Модератор відео


З нами з: 20.02.11
Востаннє: 28.02.20
Повідомлень: 6581

2019-04-08 13:09  
DEMO написано:
кодек:

Вказати кількість карналів
також скріншоти не відповідають вказаному розміру, + додайте по пару скрінів з різного відео

Ваш часовий пояс: GMT + 2 Години

Нова тема   Відповісти