Земля до початку часів / The Land Before Time (Сезон 1) (2007) 1080p Ukr/Eng

Нові коментарі

Нова тема   Відповісти
Автор Повідомлення
sergiyko.5 
Забанено
Забанено


З нами з: 25.02.16
Востаннє: 29.10.20
Повідомлень: 3648

2019-04-06 22:04  
Земля до початку часів / The Land Before Time (Сезон 1) (2007) 1080p Ukr/Eng

Земля до початку часів / The Land Before Time (Сезон 1) (2007) 1080p Ukr/Eng

Жанр: мультфільм, пригоди, сімейний
Країна: США, Ірландія
Режисер: Скот Хемінг, Дік Себаст, Чарльз Гросвенор
У ролях: Арія Ноель Курзон, Коуді Аренс, Джеф Бенет

Сюжет:
Пригодницький анімаційний серіал для всієї родини "Земля до початку часів" - це історія про пригоди маленького бронтозавра Літлфута і його друзів.




Тривалість: 1 серія: 22:40 (цілком серій: 26 з 26)
Якість:

Відео: кодек: розмір кадру: 1920 х 1080 бітрейт: 1200 кб/с
Аудіо # 1: мова: українська переклад: професійний дубльований кодек: 2.0 бітрейт: 192 кб/с
Озвучення:
Аудіо # 2: мова: англійська переклад: оригінал кодек: 2.0 бітрейт: 192 кб/с

Примітка: українська доріжка записана з супутникової трансляції і синхронізована під HD відео, звук не розтягувався і не змінювався тон.
Перелік серій:
01 The Cave of Many Voices
02 The Canyon of Shiny Stones
03 The Star Day Celebration
04 The Mysterious Tooth Crisis
05 The Brave Longneck Scheme
06 The Meadow of Jumping Waters
07 The Great Log Running Game
08 The Legend of the Story Speakers
09 The Bright Circle Celebration
10 Escape From the Mysterious Beyond
11 The Hidden Canyon
12 The Days of Rising Waters
13 The Lonely Journey
14 The Missing Fast-Water Adventure
15 The Spooky Nighttime Adventure
16 The Lone Dinosaur Returns
17 Stranger from the Mysterious Above
18 The Forbidden Friendship
19 The Amazing Threehorn Girl
20 The Big Longneck Test
21 The Hermit of Blackrock
22 Return to Hanging Rock
23 March of the Sand Creepers
24 Search for the Sky Color Stones
25 Through the Eyes of a Spiketail
26 The Great Egg Adventure
Про файл:
General
Unique ID : 62071480330673603569516976358934941309 (0x2EB2884297CFCCDAF44BF9BA28BB8E7D)
Complete name : G:\Torrents2\MULT\MuSERIAL\The Land Before Time 1080p \S01E13.The Lonely Journey.1080p..
Format :
Format version : Version 4
File size : 249 MiB
Duration : 22 min 2 s
Overall bit rate : 1 577 kb/s
Movie name : The Land Before Time 1080p by sergiyko
Encoded date : UTC 2019-04-06 08:07:55
Writing application : v32.0.0 ('Astral Progressions') 64-bit
Writing library : libebml v1.3.7 + v1.5.0

Video
ID : 1
Format : AVC
Format/Info : Advanced Video Codec
Format profile : [email protected]
Format settings : CABAC / 3 Ref Frames
Format settings, CABAC : Yes
Format settings, ReFrames : 3 frames
Codec ID : V_MPEG4/ISO/AVC
Duration : 22 min 2 s
Bit rate : 1 191 kb/s
Width : 1 920 pixels
Height : 1 080 pixels
Display aspect ratio : 16:9
Frame rate mode : Constant
Frame rate : 25.000 FPS
Color space : YUV
Chroma subsampling : 4:2:0
Bit depth : 8 bits
Scan type : Progressive
Bits/(Pixel*Frame) : 0.023
Stream size : 188 MiB (76%)
Title : S01E13.The Lonely Journey
Language : English
Default : Yes
Forced : No
Color range : Limited
Color primaries : BT.709
Transfer characteristics : BT.709
Matrix coefficients : BT.709

Audio #1
ID : 2
Format : AC-3
Format/Info : Audio Coding 3
Commercial name : Dolby Digital
Codec ID : A_AC3
Duration : 22 min 2 s
Bit rate mode : Constant
Bit rate : 192 kb/s
Channel(s) : 2 channels
Channel layout : L R
Sampling rate : 48.0 kHz
Frame rate : 31.250 FPS (1536 SPF)
Bit depth : 16 bits
Compression mode : Lossy
Stream size : 30.3 MiB (12%)
Title : 2ch | К1
Language : Ukrainian
Service kind : Complete Main
Default : Yes
Forced : Yes

Audio #2
ID : 3
Format : AC-3
Format/Info : Audio Coding 3
Commercial name : Dolby Digital
Codec ID : A_AC3
Duration : 22 min 2 s
Bit rate mode : Constant
Bit rate : 192 kb/s
Channel(s) : 2 channels
Channel layout : L R
Sampling rate : 48.0 kHz
Frame rate : 31.250 FPS (1536 SPF)
Bit depth : 16 bits
Compression mode : Lossy
Stream size : 30.3 MiB (12%)
Title : Original
Language : English
Service kind : Complete Main
Default : No
Forced : No
Скріншоти:



Запис/зведення: sergiyko


Бронзовий реліз (на рейтинг впливає 75% завантаженого)
 Трекер:    Зареєстрований   

Завантажити / скачати мультфільм українською



відео для новачків



 Зареєстрований:   2019-07-28 11:47
 Розмір:   7.1 GB 
 Оцінка мультсеріалу:   9.9/10 (Голосів: 24)
   
max factor 
Частий відвідувач


З нами з: 08.01.19
Востаннє: 01.02.21
Повідомлень: 42

2019-05-27 23:29  
Чекаю нових серій. Бажаю вдалої роботи в записі цього чудового та захопливого мультсеріалу.
sergiyko.5 
Забанено
Забанено


З нами з: 25.02.16
Востаннє: 29.10.20
Повідомлень: 3648

2019-05-28 23:49  
Додав нові серії.
max factor 
Частий відвідувач


З нами з: 08.01.19
Востаннє: 01.02.21
Повідомлень: 42

2019-06-07 15:17  
Дуже дякую. Ви зробили просто колосальну роботу. Респект.
sergiyko.5 
Забанено
Забанено


З нами з: 25.02.16
Востаннє: 29.10.20
Повідомлень: 3648

2019-06-21 22:33  
Додав 5 нових серій.
max factor 
Частий відвідувач


З нами з: 08.01.19
Востаннє: 01.02.21
Повідомлень: 42

2019-06-23 20:45  
Дякую за безцінний вклад в доповнення такого цінного, пригодницького, повчального мультика.
lazyeugene 
Новенький


З нами з: 27.09.09
Востаннє: 07.01.21
Повідомлень: 3

2019-06-26 06:37  
Хоч хтось з повним торентом є? За останні 3 дні жодного сіда з повними файлами Sad (1)
sergiyko.5 
Забанено
Забанено


З нами з: 25.02.16
Востаннє: 29.10.20
Повідомлень: 3648

2019-07-07 17:07  
Додав 2 та 7 серії.
max factor 
Частий відвідувач


З нами з: 08.01.19
Востаннє: 01.02.21
Повідомлень: 42

2019-07-12 14:23  
Спасибі вам величезне, так тримати. Я вірю що ви завершите доповнення 1 сезону цього чудового мультсеріалу. Сподіваюсь на каналі К1 буде трансляція 2 сезону і ви зможете додавати серії і до нього. Обов’язково пораджу його своїм знайомим, батькам своїх друзів, племінникам.
sergiyko.5 
Забанено
Забанено


З нами з: 25.02.16
Востаннє: 29.10.20
Повідомлень: 3648

2019-07-28 11:50  
Додав 18, 22, 24 серії. Оновіть торент-файл.

Сезон повний. Приємного перегляду!

max factor 
Частий відвідувач


З нами з: 08.01.19
Востаннє: 01.02.21
Повідомлень: 42

2019-07-31 01:48  
Дякую. Ви зробили безцінну роботу. Я впевнений що діти які виросли на цьому мультику та інші покоління будуть вам завжди вдячні і пам’ятатимуть вашу працю і добру справу.
LTMMEXDIS 
Частий відвідувач


З нами з: 01.02.12
Востаннє: 13.09.20
Повідомлень: 40

2019-12-15 18:32  
Лише не розумію чому такий малий бітрейт...Невже не можна було залишити якість ХД...
sergiyko.5 
Забанено
Забанено


З нами з: 25.02.16
Востаннє: 29.10.20
Повідомлень: 3648

2019-12-15 19:14  
А я не мав відео кращої якості. Яке вдалось знайти, з того і зробив реліз.
LTMMEXDIS 
Частий відвідувач


З нами з: 01.02.12
Востаннє: 13.09.20
Повідомлень: 40

2019-12-15 22:26  
Тому питання не до Вас... Дякую за роботу.
[email protected] 
Частий відвідувач


З нами з: 20.03.12
Востаннє: 12.04.21
Повідомлень: 44

2021-02-25 13:52  
Доброго дня. Ааауууу, хтось є на роздачі?
Ваш часовий пояс: GMT + 2 Години

Нова тема   Відповісти