Зустріч однокласників (2018) AVC

Нові коментарі

Нова тема   Відповісти
Автор Повідомлення
sergiyko.5 
Забанено
Забанено


З нами з: 25.02.16
Востаннє: 29.10.20
Повідомлень: 3648

2019-04-06 16:06  
Зустріч однокласників (2018) AVC

Зустріч однокласників (2018) AVC

Жанр: комедія
Країна: Україна
Кінокомпанія: НЛО TV, Tauras Films, Idea Production
Режисер: Валентин Шпаков
Актори: Валерій Харчишин, Андрій Бурим, Олексій Нагрудний

Сюжет:
В основі сюжету історія трьох шкільних друзів, які зустрічаються, щоб відзначити 25-річчя випуску. Багато хто вважає, що раз доля дала шанс більше ніколи не бачитися зі своїми однокласниками зразу після випускного — треба цим скористатися. Але наші герої вирішують інакше і вирушають на найважливішу вечірку в їхньому житті.




Тривалість: 01:26:51
Якість:

Відео: кодек: розмір кадру: 1024 х 424 бітрейт: 1300 кб/с
Аудіо: мова: українська переклад: оригінал кодек: 2.0 бітрейт: 192 кб/с
Про файл:
General
Unique ID : 13368737816399521449338460406864801463 (0xA0EB9A9D91E2E891A9A96D0BAB9EEB7)
Complete name : G:\Torrents2\FILMS\Зустріч однокласників.2018..H264.
Format :
Format version : Version 4
File size : 939 MiB
Duration : 1 h 26 min
Overall bit rate : 1 512 kb/s
Movie name : Зустріч однокласників 2018 rip by sergiyko
Encoded date : UTC 2019-04-30 10:00:11
Writing application : v33.1.0 ('Primrose') 64-bit
Writing library : libebml v1.3.7 + v1.5.0
Cover : Yes
Attachments : cover.jpeg

Video
ID : 1
Format : AVC
Format/Info : Advanced Video Codec
Format profile : [email protected]
Format settings : CABAC / 10 Ref Frames
Format settings, CABAC : Yes
Format settings, ReFrames : 10 frames
Codec ID : V_MPEG4/ISO/AVC
Duration : 1 h 26 min
Bit rate : 1 318 kb/s
Width : 1 024 pixels
Height : 424 pixels
Display aspect ratio : 2.40:1
Frame rate mode : Constant
Frame rate : 25.000 FPS
Color space : YUV
Chroma subsampling : 4:2:0
Bit depth : 8 bits
Scan type : Progressive
Bits/(Pixel*Frame) : 0.121
Stream size : 819 MiB (87%)
Title : Зустріч однокласників 2018
Writing library : core 152 r2851 ba24899
Encoding settings : cabac=1 / ref=10 / deblock=1:-1:-1 / analyse=0x3:0x113 / me=hex / subme=9 / psy=1 / psy_rd=1.00:0.15 / mixed_ref=1 / me_range=16 / chroma_me=1 / trellis=2 / 8x8dct=1 / cqm=0 / deadzone=21,11 / fast_pskip=1 / chroma_qp_offset=-3 / threads=13 / lookahead_threads=1 / sliced_threads=0 / nr=0 / decimate=1 / interlaced=0 / bluray_compat=0 / constrained_intra=0 / bframes=6 / b_pyramid=2 / b_adapt=1 / b_bias=0 / direct=3 / weightb=1 / open_gop=0 / weightp=2 / keyint=250 / keyint_min=25 / scenecut=40 / intra_refresh=0 / rc_lookahead=50 / rc=crf / mbtree=1 / crf=19.0 / qcomp=0.60 / qpmin=0 / qpmax=69 / qpstep=4 / ip_ratio=1.40 / aq=1:1.00
Language : Ukrainian
Default : Yes
Forced : No

Audio
ID : 2
Format : LC
Format/Info : Advanced Audio Codec Low Complexity
Codec ID : A_AAC-2
Duration : 1 h 26 min
Bit rate : 192 kb/s
Channel(s) : 2 channels
Channel layout : L R
Sampling rate : 48.0 kHz
Frame rate : 46.875 FPS (1024 SPF)
Compression mode : Lossy
Stream size : 119 MiB (13%)
Language : Ukrainian
Default : Yes
Forced : No
Скріншоти:



Золотий реліз (завантажене не впливає на рейтинг)
 Трекер:    Зареєстрований   

Завантажити / скачати український фільм



відео для новачків



 Зареєстрований:   2019-04-30 12:02
 Розмір:   939 MB 
 Оцінка фільму:   7.4/10 (Голосів: 35)
   
Gaydamaka1 
Новенький


З нами з: 22.05.12
Востаннє: 01.03.21
Повідомлень: 22

2019-04-08 05:39  
як на мене не поганий фільм
AlexFuerte 
Новенький


З нами з: 29.05.17
Востаннє: 09.02.21
Повідомлень: 3

2019-04-13 20:41  
Дочекався
assasin666 
Новенький


З нами з: 23.07.12
Востаннє: 01.03.21
Повідомлень: 14

2019-04-17 17:39  
класна комедія
sergiyko.5 
Забанено
Забанено


З нами з: 25.02.16
Востаннє: 29.10.20
Повідомлень: 3648

2019-04-30 12:03  
Торент перезалито, у відео відсутні помилки.
Givi 
Модератор відео


З нами з: 25.02.08
Востаннє: 01.03.21
Повідомлень: 2978

2019-05-05 17:28  
Посміявся, дякую. Happy
[email protected] 
Новенький


З нами з: 07.03.17
Востаннє: 17.02.21
Повідомлень: 6

2019-05-17 08:35  
як завжди Українське кіно про сексуально стурбованих людей фууу мені гидко дивитись на що йдуть мої податки
eXteSy- 
VIP


З нами з: 06.04.09
Востаннє: 01.03.21
Повідомлень: 2287

2019-08-20 23:03  
Як на мене, провал. Кілька смішних моментів не рятують невдалий фільм. А кульмінація на вечорі випускників - це взагалі сумне видовище. Повний пшик.
Ще й виглядає все надто штучно і неприродно, не віриш, що це живі люди.
4,5/10

ADmB 
Новенький


З нами з: 25.03.17
Востаннє: 28.02.21
Повідомлень: 9

2019-09-19 13:36  
Це просто шлак якийсь. Не дивитися.
zhman 
VIP


З нами з: 21.12.14
Востаннє: 01.03.21
Повідомлень: 281

2020-02-21 02:50  
головний посил фільму зрозумілий - "У чому сенс таких зустрічей?". Але реалізація кульгає аж занадто. Я люблю всякі вульгарні та аморальні штуки в фільмах, але щоб це було дійсно в тему, а не як то говорять "приший кобилі хвіст". Як от в одному з епізодів : "Пісюн стоїть?" Ну шо за дурня?? 5/10 і то з них 2 за саундтреки
Ваш часовий пояс: GMT + 2 Години

Нова тема   Відповісти