Зустріч однокласників (2018)

Нові коментарі

Нова тема   Відповісти
Автор Повідомлення
sergiyko.5 
Забанено
Забанено


З нами з: 25.02.16
Востаннє: 29.10.20
Повідомлень: 3648

2019-04-06 16:04  
Зустріч однокласників (2018)

Зустріч однокласників (2018)

Жанр: комедія
Країна: Україна
Кінокомпанія: НЛО TV, Tauras Films, Idea Production
Режисер: Валентин Шпаков
Актори: Валерій Харчишин, Андрій Бурим, Олексій Нагрудний

Сюжет:
В основі сюжету історія трьох шкільних друзів, які зустрічаються, щоб відзначити 25-річчя випуску. Багато хто вважає, що раз доля дала шанс більше ніколи не бачитися зі своїми однокласниками зразу після випускного — треба цим скористатися. Але наші герої вирішують інакше і вирушають на найважливішу вечірку в їхньому житті.




Тривалість: 01:26:51
Якість:

Відео: кодек: розмір кадру: 720 х 304 бітрейт: 1480 кб/с
Аудіо: мова: українська переклад: оригінал кодек: 2.0 бітрейт: 192 кб/с
Про файл:
General
Complete name : G:\Torrents2\FILMS\Зустріч однокласників.2018..avi
Format : AVI
Format/Info : Audio Video Interleave
File size : 1.02 GiB
Duration : 1 h 26 min
Overall bit rate : 1 684 kb/s
Writing application : VirtualDubMod 1.5.10.3 | www.virtualdub-fr.org || (build 2550/release)
Writing library : VirtualDubMod build 2550/release

Video
ID : 0
Format : MPEG-4 Visual
Format profile : Advanced [email protected]
Format settings : BVOP1
Format settings, BVOP : 1
Format settings, QPel : No
Format settings, GMC : No warppoints
Format settings, Matrix : Default (MPEG)
Codec ID :
Codec ID/Hint :
Duration : 1 h 26 min
Bit rate : 1 482 kb/s
Width : 720 pixels
Height : 304 pixels
Display aspect ratio : 2.35:1
Frame rate : 25.000 FPS
Color space : YUV
Chroma subsampling : 4:2:0
Bit depth : 8 bits
Scan type : Progressive
Compression mode : Lossy
Bits/(Pixel*Frame) : 0.271
Stream size : 921 MiB (88%)
Writing library : 1.2.1 (UTC 2008-12-04)

Audio
ID : 1
Format : AC-3
Format/Info : Audio Coding 3
Commercial name : Dolby Digital
Codec ID : 2000
Duration : 1 h 26 min
Bit rate mode : Constant
Bit rate : 192 kb/s
Channel(s) : 2 channels
Channel layout : L R
Sampling rate : 48.0 kHz
Frame rate : 31.250 FPS (1536 SPF)
Bit depth : 16 bits
Compression mode : Lossy
Stream size : 119 MiB (11%)
Alignment : Split accross interleaves
Interleave, duration : 40 ms (1.00 video frame)
Interleave, preload duratio : 500 ms
Service kind : Complete Main
Скріншоти:



Золотий реліз (завантажене не впливає на рейтинг)
 Трекер:    Зареєстрований   

Завантажити / скачати український фільм



відео для новачків



 Зареєстрований:   2019-04-07 18:58
 Розмір:   1.02 GB 
 Оцінка фільму:   8.7/10 (Голосів: 52)
   
kuts-vv 
VIP


З нами з: 11.12.11
Востаннє: 24.02.21
Повідомлень: 335

2019-04-07 11:41  
Дивився в кінотеатрі - досить пристойний фільм. Хоча тему можна було б розкрити і ширше. Але фільм прикольний. Осоьливо Петро Бампер класно вписався і насмішив.
601сан 
VIP


З нами з: 22.05.12
Востаннє: 24.02.21
Повідомлень: 348

2019-04-07 13:03  
Декілька разів відео зупиняється ,що за оказія?
Electroz 
Відео Гуртом - підтримка та поширення
Відео Гуртом - підтримка та поширення


З нами з: 18.09.14
Востаннє: 24.02.21
Повідомлень: 4330

2019-04-07 15:24  
del
601сан 
VIP


З нами з: 22.05.12
Востаннє: 24.02.21
Повідомлень: 348

2019-04-07 15:41  
Electroz
6 хв 59 сек,23 хв 48с,29 хв 46 с,36 хв 47 с .
Напевно це не все, бо не маю часу перевіряти.

sergiyko.5 
Забанено
Забанено


З нами з: 25.02.16
Востаннє: 29.10.20
Повідомлень: 3648

2019-04-07 21:06  
Торент оновлено, файл відео замінено на кращий.
andriy_nv 
VIP


З нами з: 27.06.08
Востаннє: 24.02.21
Повідомлень: 1128

2019-04-09 16:59  
вульгарна комедія про чоловіків середнього віку
раз глянути можна

lemko2012 
Новенький


З нами з: 15.08.12
Востаннє: 23.02.21
Повідомлень: 18

2019-04-24 06:54  
в американському стилі,але на рівні,можна посміятись...
DDDaemon 
Новенький


З нами з: 07.12.12
Востаннє: 30.01.21
Повідомлень: 5

2019-04-26 16:21  
klassentreffen 1.0
Німецька комедія з Швайгером.

По сюжету - копія, цікаво хто у кого злизав....

До речі - хоч сюжет і однотипний, герої обіграні троха по іншому, варто подивитися

pi-men 
Частий відвідувач


З нами з: 05.07.12
Востаннє: 21.02.21
Повідомлень: 49

2019-04-29 21:23  
Шкода витраченого часу, хоча і більше 15 хвилин не осилив..
Харчишина не очікував в такому амплуа побачити.

portsmuth 
Свій


З нами з: 10.06.14
Востаннє: 13.02.21
Повідомлень: 77

2019-09-23 13:04  
Варто відзначити, що «Зустріч однокласників» це фільм не для святенників.
Незважаючи на деякі надмірні вигини на місцях, «Зустріч однокласників» виглядає добре.
Фільм до перегляду рекомендується.
Тільки дивіться без дітей.

sir.ko 
Новенький


З нами з: 05.02.20
Востаннє: 10.02.21
Повідомлень: 8

2020-04-02 11:18  
"Дібілістік фільм" з огідними приколами, навіть в Голівуді такої мерзоти немає !!!
Ваш часовий пояс: GMT + 2 Години

Нова тема   Відповісти