Як приборкати дракона 2 / How to Train Your Dragon 2 (2014) UHD Remux 2160p 4K HDR H.265 Ukr/Eng | Sub Ukr/Eng

Нові коментарі

Нова тема   Відповісти
Автор Повідомлення
Argentum 
Поважний учасник


З нами з: 25.09.11
Востаннє: 26.02.20
Повідомлень: 238

2019-04-06 12:03  
Як приборкати дракона 2 / How to Train Your Dragon 2 (2014) UHD Remux 2160p 4K HDR H.265 Ukr/Eng | Sub Ukr/Eng

Як приборкати дракона 2 / How to Train Your Dragon 2 (2014) UHD Remux 2160p 4K HDR H.265 Ukr/Eng | Sub Ukr/Eng


Жанр: анімація, пригодницький, фентезі, сімейний
Країна: США



Кінокомпанія: DreamWorks Animation
Режисер: Дін Деблуа
Актори: Джей Барушель, Кейт Бланшетт, Джерард Батлер, Крейґ Ферґюсон, Америка Феррера, Джона Гілл, Крістофер Мінц-Плассе, Ті Джей Міллер, Крістен Віґ, Джимон Хонсу, Кіт Герінгтон та інші.

Сюжет:
З моменту подій попереднього мультфільму проходить п'ять років. Іккінг і його друзі встигли вже подорослішати і змужніти. Та й усі вікінги тепер інакше стали належить до драконів. Ця дружба дозволила скандинавським воїнам задуматися про освоєння земель вже на драконах, а не човнах. Для розвідки і складання мап, Іккінг зі своїм полухвостим товаришем розвідують прилеглі території. Натрапивши випадково на острів з льоду, герої стають на шляху великого протистояння людини і драконів, яке затіває якийсь незнайомець з надр цього острова...


Тривалість: 01:41:55
Якість: 4K UltraHD Remux 2160p
Відео:
кодек: H.265 (HEVC)
розмір кадру: 3840 х 2160
бітрейт: 37.6 Мб/с
бітова глибина: 10 біт
кольоровий простір: BT.2020 (HDR)

Увага! Перед завантаженням переконайтесь, що ваш пристрій відтворення (та/або ПЗ) підтримує H.265 (HEVC)

Аудіо # 1:
мова: українська
переклад: професійний дубльований
кодек: 5.1
бітрейт: 448 кб/с

Аудіо # 2:
мова: англійська
переклад: оригінал
кодек: 5.1
бітрейт: 1509 кб/с

Субтитри:
мова: українська
тип: програмні (м'які)
формат: *.srt

Субтитри 2-3: (повні, SDH)
мова: англійська
тип: програмні (м'які)
формат: *.srt
Info
General
Unique ID : 89351630854287865820546155235147128216 (0x43387F866105D826125CDDA9451A1D98)
Complete name : How to Train Your Dragon 2 (2014) [Ukr, Eng] Remux HDR 2160p [Hurtom].
Format :
Format version : Version 4
File size : 28.1 GiB
Duration : 1 h 41 min
Overall bit rate : 39.5 Mb/s
Movie name : How to Train Your Dragon 2 (2014) [Ukr, Eng] Remux HDR 2160p
Encoded date : UTC 2019-04-05 12:00:24
Writing application : v32.0.0 ('Astral Progressions') 64-bit
Writing library : libebml v1.3.7 + v1.5.0
Attachments : HTTYD2.jpg

Video
ID : 1
Format : HEVC
Format/Info : High Efficiency Video Coding
Format profile : Main [email protected]@High
HDR format : SMPTE ST 2086, HDR10 compatible
Codec ID : V_MPEGH/ISO/HEVC
Duration : 1 h 41 min
Bit rate : 37.6 Mb/s
Width : 3 840 pixels
Height : 2 160 pixels
Display aspect ratio : 16:9
Frame rate mode : Constant
Frame rate : 23.976 (24000/1001) FPS
Color space : YUV
Chroma subsampling : 4:2:0 (Type 2)
Bit depth : 10 bits
Bits/(Pixel*Frame) : 0.189
Stream size : 26.7 GiB (95%)
Title : HEVC 3840*2160 HDR10 @ 37.6 Mbps
Language : Multiple languages
Default : Yes
Forced : Yes
Color range : Limited
Color primaries : BT.2020
Transfer characteristics : PQ
Matrix coefficients : BT.2020 non-constant
Mastering display color pri : Display P3
Mastering display luminance : min: 0.0050 cd/m2, max: 1000 cd/m2
Maximum Content Light Level : 922 cd/m2
Maximum Frame-Average Light : 239 cd/m2

Audio #1
ID : 2
Format : AC-3
Format/Info : Audio Coding 3
Commercial name : Dolby Digital
Codec ID : A_AC3
Duration : 1 h 41 min
Bit rate mode : Constant
Bit rate : 448 kb/s
Channel(s) : 6 channels
Channel layout : L R C LFE Ls Rs
Sampling rate : 48.0 kHz
Frame rate : 31.250 FPS (1536 SPF)
Bit depth : 16 bits
Compression mode : Lossy
Delay relative to video : 3 s 983 ms
Stream size : 327 MiB (1%)
Title : 5.1 @ 448 Kbps
Language : Ukrainian
Service kind : Complete Main
Default : Yes
Forced : Yes

Audio #2
ID : 3
Format :
Format/Info : Digital Theater Systems
Codec ID : A_DTS
Duration : 1 h 41 min
Bit rate mode : Constant
Bit rate : 1 509 kb/s
Channel(s) : 6 channels
Channel layout : C L R Ls Rs LFE
Sampling rate : 48.0 kHz
Frame rate : 93.750 FPS (512 SPF)
Bit depth : 24 bits
Compression mode : Lossy
Delay relative to video : -17 ms
Stream size : 1.07 GiB (4%)
Title : 5.1 @ 1509 Kbps
Language : English
Default : No
Forced : No

Text #1
ID : 4
Format : UTF-8
Codec ID : S_TEXT/UTF8
Codec ID/Info : UTF-8 Plain Text
Duration : 1 h 31 min
Bit rate : 78 b/s
Count of elements : 1145
Stream size : 52.7 KiB (0%)
Title : Full
Language : Ukrainian
Default : No
Forced : No

Text #2
ID : 5
Format : UTF-8
Codec ID : S_TEXT/UTF8
Codec ID/Info : UTF-8 Plain Text
Duration : 1 h 31 min
Bit rate : 47 b/s
Count of elements : 1144
Stream size : 31.5 KiB (0%)
Title : Full
Language : English
Default : No
Forced : No

Text #3
ID : 6
Format : UTF-8
Codec ID : S_TEXT/UTF8
Codec ID/Info : UTF-8 Plain Text
Duration : 1 h 31 min
Bit rate : 65 b/s
Count of elements : 1535
Stream size : 43.7 KiB (0%)
Title : SDH
Language : English
Default : No
Forced : No

Menu
00:00:00.000 : en:00:00:00.000
00:03:27.999 : en:00:03:27.999
00:05:20.695 : en:00:05:20.695
00:07:46.007 : en:00:07:46.007
00:10:16.032 : en:00:10:16.032
00:13:16.337 : en:00:13:16.337
00:16:59.060 : en:00:16:59.060
00:20:01.700 : en:00:20:01.700
00:23:43.255 : en:00:23:43.255
00:27:14.466 : en:00:27:14.466
00:29:21.468 : en:00:29:21.468
00:33:41.937 : en:00:33:41.937
00:37:05.473 : en:00:37:05.473
00:39:06.970 : en:00:39:06.970
00:40:59.165 : en:00:40:59.165
00:45:03.993 : en:00:45:03.993
00:47:16.625 : en:00:47:16.625
00:51:51.525 : en:00:51:51.525
00:54:35.731 : en:00:54:35.731
00:56:15.998 : en:00:56:15.998
01:00:33.171 : en:01:00:33.171
01:04:28.782 : en:01:04:28.782
01:06:34.949 : en:01:06:34.949
01:09:44.138 : en:01:09:44.138
01:14:01.854 : en:01:14:01.854
01:18:35.127 : en:01:18:35.127
01:21:07.154 : en:01:21:07.154
01:22:55.053 : en:01:22:55.053
01:24:30.065 : en:01:24:30.065
01:28:04.654 : en:01:28:04.654
01:31:03.500 : en:01:31:03.500
01:32:21.995 : en:01:32:21.995
Скріншоти







Джерело:
Особиста оцінка: 8 - мені сподобалося


Золотий реліз (завантажене не впливає на рейтинг)
 Трекер:    Зареєстрований   

Завантажити / скачати мультфільм українською



відео для новачків



 Зареєстрований:   2019-04-06 13:16
 Розмір:   28.15 GB 
 Оцінка мультфільму:   10/10 (Голосів: 5)
   
Інші релізи
   Як приборкати дракона 2 / How to Train Your Dragon 2 (2014) Remux 1080p Ukr/Eng | Sub Ukr/Eng sandman  3 / 0   20.64 GB   2019-02-24 19:15 
   Як приборкати дракона 2 / How to Train Your Dragon 2 (2014) 1080p 3D [Half SideBySide] Ukr/Eng | Sub Ukr/Eng igor911  3 / 0   8.09 GB   2015-01-25 18:22 
   Як приборкати дракона 2 / How to Train Your Dragon 2 (2014) DVD9 Ліцензія Beffis  2 / 0   7.54 GB   2015-01-18 12:13 
   Як приборкати дракона 2 / How to Train Your Dragon 2 (2014) 360p DmitryA  1 / 0   893 MB   2014-11-14 18:34 
   Як приборкати дракона 2 / How to Train Your Dragon 2 (2014) 720p-mini (60fps) Drool  2 / 0   4.1 GB   2014-10-30 13:39 
   Як приборкати дракона 2 / How to Train Your Dragon 2 (2014) 720p-mini Drool  5 / 0   2.11 GB   2014-10-23 08:15 
   Як приборкати дракона 2 / How to Train Your Dragon 2 (2014) AVC Ukr | Sub Ukr/Eng patriot2305  9 / 0   1.8 GB   2014-10-18 20:42 
   Як приборкати дракона 2 / How to Train Your Dragon 2 (2014) Ukr | Sub Ukr/Eng Gelios  16 / 0   1.45 GB   2014-10-18 18:40 
   Як приборкати дракона 2 / How to Train Your Dragon 2 (2014) 1080p Ukr/Eng | Sub Ukr/Eng 11FrYkT  13 / 0   7.72 GB   2014-10-18 17:59 
   Як приборкати дракона 2 / How to Train Your Dragon 2 (2014) 720p Ukr/Eng | Sub Ukr/Eng 11FrYkT  16 / 1   4.15 GB   2014-10-18 14:47 
   Як приборкати дракона 2 / How to Train Your Dragon 2 (2014) Blu-ray CEE Multi | Sub Multi smak2001  1 / 0   37.53 GB   2014-10-17 22:51 
bot 
робот


З нами з: 30.09.07
Востаннє: 26.05.05
Повідомлень: 23374

2019-04-06 12:03  
Тему перенесено з Мультфільми в HD до форуму Анонси релізів


Argentum

bot 
робот


З нами з: 30.09.07
Востаннє: 26.05.05
Повідомлень: 23374

2019-04-06 13:15  
Тему перенесено з Анонси релізів до форуму Мультфільми в HD


Argentum

msi-145 
Новенький


З нами з: 06.04.14
Востаннє: 16.02.20
Повідомлень: 7

2019-06-09 18:45  
Чомусь не відтворюється в мене даний раліз на LG smart TV
Ваш часовий пояс: GMT + 2 Години

Нова тема   Відповісти