Мері Поппінс повертається / Mary Poppins Returns (2018) UHD Remux 4K 2160p HDR H.265 Ukr/Eng | Sub Eng

Нові коментарі

Нова тема   Відповісти
Автор Повідомлення
Anonymous 







2019-04-05 02:02  
Мері Поппінс повертається / Mary Poppins Returns (2018) UHD Remux 4K 2160p HDR H.265 Ukr/Eng | Sub Eng

Мері Поппінс повертається / Mary Poppins Returns (2018) UHD Remux 4K 2160p HDR H.265 Ukr/Eng | Sub Eng


Жанр: комедія, мюзикл, сімейний, фентезі
Країна: США





Кінокомпанія: Walt Disney Pictures
Режисер: Роб Маршалл
Актори: Емілі Блант, Лін-Мануель Міранда, Бен Вішоу, Емілі Мортімер, Піксі Дейвіс, Натанаель Салех, Джоел Довсон, Джулі Волтерс, Меріл Стріп, Колін Ферт та інші

Сюжет:
Події розгортаються в Лондоні періоду кризи. Майкл Бенкс, тепер уже дорослий чоловік зі своєю сім'єю, береться за тимчасову роботу в одному з лондонських банків, тому самому, де раніше працювали його батько та дід. Він і троє його дітей, Анабель, Джон і Джорджі, живуть на вулиці Вишневій, в будинку під номером 17, і для них настали непрості часи. Сім'я важко переживає раптову смерть дружини Майкла, отож будинок перебуває в стані постійного хаосу, незважаючи на всі зусилля їхньої добродушної, але вкрай нерозторопної економки Елен. Сувора дійсність і тягар втрати важким каменем лягли на плечі сім'ї, і дітям доводиться брати на себе дорослі обов'язки, занадто швидко розлучаючись з безтурботним дитинством.


Тривалість: 02:10:29
Якість: 4K UltraHD Remux 2160p

Відео:
кодек: H.265 (HEVC)
розмір кадру: 3840x2160
бітрейт: 53,2 Мб/с
бітова глибина: 10 біт
кольоровий простір: BT.2020 (HDR)

Аудіо # 1:
мова: українська
переклад: професійний дубльований | студія LeDoyen
кодек: 5.1
бітрейт: 448 кб/с

Аудіо # 2:
мова: українська
переклад: професійний дубльований | студія LeDoyen
кодек: 5.1
бітрейт: 1536 кб/с

Аудіо # 3:
мова: українська
переклад: професійний дубльований | студія LeDoyen
кодек: -HD MA 5.1
бітрейт: 3773 кб/с

Аудіо # 4:
мова: англійська
переклад: оригінал
кодек: 5.1
бітрейт: 640 кб/с

Аудіо # 5:
мова: англійська
переклад: оригінал
кодек: HD-MA 7.1
бітрейт: 4109 кб/с

Аудіо # 6:
мова: англійська
переклад: оригінал
кодек: TrueHD 7.1
бітрейт: 4253 кб/с

Субтитри:
мова: англійська
тип: програмні (м'які)
формат: *.srt
Info
General
Complete name : Mary Poppins Returns (2018) UHD Remux 4K 2160p HDR H.265 (HEVC) [UKR_ENG] [ViDeO_Hurtom].
Format :
Format version : Version 4
File size : 62.0 GiB
Duration : 2 h 10 min
Overall bit rate mode : Variable
Overall bit rate : 68.0 Mb/s
Movie name : Mary Poppins Returns (2018) UHD Remux 4K 2160p HDR H.265 (HEVC) [UKR_ENG] [ViDeO_Hurtom]
Encoded date : UTC 2019-04-04 21:08:09
Writing application : v30.1.0 ('Forever And More') 64-bit
Writing library : libebml v1.3.6 + v1.4.9

Video
ID : 1
Format : HEVC
Format/Info : High Efficiency Video Coding
Commercial name : HDR10
Format profile : Main [email protected]@High
Codec ID : V_MPEGH/ISO/HEVC
Duration : 2 h 10 min
Bit rate : 53.2 Mb/s
Width : 3 840 pixels
Height : 2 160 pixels
Display aspect ratio : 16:9
Frame rate mode : Constant
Frame rate : 23.976 (24000/1001) FPS
Color space : YUV
Chroma subsampling : 4:2:0 (Type 2)
Bit depth : 10 bits
Bits/(Pixel*Frame) : 0.268
Stream size : 48.5 GiB (78%)
Title : mp
Writing library : ATEME Titan File 3.9.0 (4.9.0.0)
Default : Yes
Forced : No
Color range : Limited
Color primaries : BT.2020
Transfer characteristics : PQ
Matrix coefficients : BT.2020 non-constant
Mastering display color primaries : Display P3
Mastering display luminance : min: 0.0001 cd/m2, max: 1000 cd/m2

Audio #1
ID : 2
Format : AC-3
Format/Info : Audio Coding 3
Commercial name : Dolby Digital
Codec ID : A_AC3
Duration : 2 h 10 min
Bit rate mode : Constant
Bit rate : 448 kb/s
Channel(s) : 6 channels
Channel layout : L R C LFE Ls Rs
Sampling rate : 48.0 kHz
Frame rate : 31.250 FPS (1536 SPF)
Bit depth : 16 bits
Compression mode : Lossy
Delay relative to video : -1 ms
Stream size : 418 MiB (1%)
Title : 6 ch, 448 Кбт/с
Language : Ukrainian
Service kind : Complete Main
Default : No
Forced : No

Audio #2
ID : 3
Format :
Format/Info : Digital Theater Systems
Codec ID : A_DTS
Duration : 2 h 10 min
Bit rate mode : Constant
Bit rate : 1 509 kb/s
Channel(s) : 6 channels
Channel layout : C L R Ls Rs LFE
Sampling rate : 48.0 kHz
Frame rate : 93.750 FPS (512 SPF)
Bit depth : 24 bits
Compression mode : Lossy
Delay relative to video : -1 ms
Stream size : 1.38 GiB (2%)
Title : 6 ch, 1536 Кбт/с
Language : Ukrainian
Default : No
Forced : No

Audio #3
ID : 4
Format : XLL
Format/Info : Digital Theater Systems
Commercial name : -HD Master Audio
Codec ID : A_DTS
Duration : 2 h 10 min
Bit rate mode : Variable
Bit rate : 3 773 kb/s
Channel(s) : 6 channels
Channel layout : C L R Ls Rs LFE
Sampling rate : 48.0 kHz
Frame rate : 93.750 FPS (512 SPF)
Bit depth : 24 bits
Compression mode : Lossless
Delay relative to video : -1 ms
Stream size : 3.44 GiB (6%)
Title : HD-MA 6 ch, 3773 Кбт/с
Language : Ukrainian
Default : No
Forced : No

Audio #4
ID : 5
Format : AC-3
Format/Info : Audio Coding 3
Commercial name : Dolby Digital
Codec ID : A_AC3
Duration : 2 h 10 min
Bit rate mode : Constant
Bit rate : 640 kb/s
Channel(s) : 6 channels
Channel layout : L R C LFE Ls Rs
Sampling rate : 48.0 kHz
Frame rate : 31.250 FPS (1536 SPF)
Bit depth : 16 bits
Compression mode : Lossy
Delay relative to video : 31 ms
Stream size : 597 MiB (1%)
Title : 6 ch, 640 Кбт/с
Language : English
Service kind : Complete Main
Default : No
Forced : No

Audio #5
ID : 6
Format : XLL
Format/Info : Digital Theater Systems
Commercial name : -HD Master Audio
Codec ID : A_DTS
Duration : 2 h 10 min
Bit rate mode : Variable
Bit rate : 4 109 kb/s
Channel(s) : 8 channels
Channel layout : C L R LFE Lb Rb Lss Rss
Sampling rate : 48.0 kHz
Frame rate : 93.750 FPS (512 SPF)
Bit depth : 24 bits
Compression mode : Lossless
Delay relative to video : -1 ms
Stream size : 3.75 GiB (6%)
Title : HD-MA 8 ch, 4109 Кбт/с
Language : English
Default : No
Forced : No

Audio #6
ID : 7
Format : MLP FBA 16-ch
Format/Info : Meridian Lossless Packing FBA with 16-channel presentation
Commercial name : Dolby TrueHD with Dolby Atmos
Codec ID : A_TRUEHD
Duration : 2 h 10 min
Bit rate mode : Variable
Bit rate : 4 253 kb/s
Maximum bit rate : 6 366 kb/s
Channel(s) : 8 channels
Channel layout : L R C LFE Ls Rs Lb Rb
Sampling rate : 48.0 kHz
Frame rate : 1 200.000 FPS (40 SPF)
Compression mode : Lossless
Delay relative to video : 31 ms
Stream size : 3.88 GiB (6%)
Title : TrueHD, 8 ch, 4253 Кбт/с
Language : English
Default : Yes
Forced : No
Number of dynamic objects : 13
Bed channel count : 1 channel
Bed channel configuration : LFE

Text
ID : 8
Format : UTF-8
Codec ID : S_TEXT/UTF8
Codec ID/Info : UTF-8 Plain Text
Duration : 2 h 5 min
Bit rate : 77 b/s
Count of elements : 2276
Stream size : 70.9 KiB (0%)
Title : English-SRT
Language : English
Default : Yes
Forced : No

Menu
00:00:00.000 : :Chapter 1
00:06:38.064 : :Chapter 2
00:15:22.046 : :Chapter 3
00:19:18.031 : :Chapter 4
00:26:01.893 : :Chapter 5
00:33:10.405 : :Chapter 6
00:39:05.426 : :Chapter 7
00:46:11.351 : :Chapter 8
00:57:34.033 : :Chapter 9
01:06:14.387 : :Chapter 10
01:15:55.801 : :Chapter 11
01:21:51.364 : :Chapter 12
01:32:18.199 : :Chapter 13
01:36:29.825 : :Chapter 14
01:53:58.331 : :Chapter 15
02:03:47.962 : :Chapter 16
Скріншоти



Подяка пану Hanway за синхронізацію звуку.

Джерело:
Особиста оцінка: 10 - без зайвих вагань рекомендую всім!
Увага! Перед завантаженням переконайтесь, що ваш пристрій відтворення (та/або ПЗ) підтримує H.265 (HEVC)


Золотий реліз (завантажене не впливає на рейтинг)
 Трекер:    Зареєстрований   

Завантажити / скачати фільм українською



відео для новачків



 Зареєстрований:   2019-04-05 02:02
 Розмір:   62.02 GB 
 Оцінка фільму:   8.4/10 (Голосів: 13)
   
crazzzzy 
Новенький


З нами з: 04.12.15
Востаннє: 14.12.19
Повідомлень: 12

2019-04-05 14:19  
Станьте на роздачу будь ласка!
Anonymous 







2019-04-05 21:07  
crazzzzy
тутай )

Anonymous 







2019-05-02 15:07  
10/10
Ваш часовий пояс: GMT + 2 Години

Нова тема   Відповісти