Астерікс і таємне зілля / Astérix: Le secret de la potion magique (2018) 1080p Ukr/Fra

Нові коментарі

Нова тема   Відповісти
Автор Повідомлення
Anonymous 







2019-04-04 23:02  
Астерікс і таємне зілля / Astérix: Le secret de la potion magique (2018) 1080p Ukr/Fra

Астерікс і таємне зілля / Astérix: Le secret de la potion magique (2018) 1080p Ukr/Fra
Альтернативний постер:

Астерікс і таємне зілля / Astérix: Le secret de la potion magique (2018) 1080p Ukr/Fra


Жанр: анімація, комедія, сімейний, фентезі
Країна: Франція





Кінокомпанія: Canal+, M6 Studio
Режисер: Александр Астьє, Луїс Кліши
Ролі озвучують: Крістіан Клав'є, Ґійом Бріа, Алекс Лутц, Александр Астьє, Флоренс Форесті

Сюжет:
Якось збираючи омелу, старий досвідчений та поважний друїд Гетафікс падає з дерева. Пошкодивши ногу, він не може виконувати свій головний обов'язок – варити чудодійне зілля. Тож він вирішує відправитися через галльське озеро на пошуки молодого талановитого друїда, якому міг би передати свою майстерність. Разом з ним у цю подорож вирушать нерозлучні Астерікс і Обелікс. Самого ж друїда їм доведеться нести на собі.


Тривалість: 01:24:55
Якість: 1080p

Відео:
кодек:
розмір кадру: 1920x808
бітрейт: 9545 кб/с

Аудіо:
мова: українська
переклад: професійний дубльований
кодек: 5.1
бітрейт: 384 кб/с

Аудіо:
мова: французька
переклад: оригінал
кодек: 5.1
бітрейт: 1509 кб/с

Джерело озвучення:
Info
Код:
General
Complete name                            : Astérix Le secret de la potion magique (2019) [Ukr_Fra] [Video_Hurtom].
Format                                   :
Format version                           : Version 4
File size                                : 6.78 GiB
Duration                                 : 1 h 24 min
Overall bit rate                         : 11.4 Mb/s
Movie name                               : Astérix Le secret de la potion magique (2019) [Ukr_Fra] [Video_Hurtom]
Encoded date                             : UTC 2019-04-05 21:02:49
Writing application                      : v30.1.0 ('Forever And More') 64-bit
Writing library                          : libebml v1.3.6 + v1.4.9

Video
ID                                       : 1
Format                                   : AVC
Format/Info                              : Advanced Video Codec
Format profile                           : [email protected]
Format settings                          : CABAC / 5 Ref Frames
Format settings, CABAC                   : Yes
Format settings, RefFrames               : 5 frames
Codec ID                                 : V_MPEG4/ISO/AVC
Duration                                 : 1 h 24 min
Bit rate                                 : 9 545 kb/s
Width                                    : 1 920 pixels
Height                                   : 808 pixels
Display aspect ratio                     : 2.40:1
Frame rate mode                          : Constant
Frame rate                               : 24.000 FPS
Color space                              : YUV
Chroma subsampling                       : 4:2:0
Bit depth                                : 8 bits
Scan type                                : Progressive
Bits/(Pixel*Frame)                       : 0.256
Stream size                              : 5.66 GiB (83%)
Writing library                          : core 157 r2969 d4099dd
Encoding settings                        : cabac=1 / ref=5 / deblock=1:0:0 / analyse=0x3:0x113 / me=umh / subme=8 / psy=1 / psy_rd=1.00:0.00 / mixed_ref=1 / me_range=16 / chroma_me=1 / trellis=1 / 8x8dct=1 / cqm=0 / deadzone=21,11 / fast_pskip=1 / chroma_qp_offset=-2 / threads=18 / lookahead_threads=3 / sliced_threads=0 / nr=0 / decimate=1 / interlaced=0 / bluray_compat=0 / constrained_intra=0 / bframes=3 / b_pyramid=2 / b_adapt=2 / b_bias=0 / direct=3 / weightb=1 / open_gop=0 / weightp=2 / keyint=240 / keyint_min=24 / scenecut=40 / intra_refresh=0 / rc_lookahead=50 / rc=2pass / mbtree=1 / bitrate=9545 / ratetol=1.0 / qcomp=0.60 / qpmin=0 / qpmax=69 / qpstep=4 / cplxblur=20.0 / qblur=0.5 / ip_ratio=1.40 / aq=1:1.00
Language                                 : French
Default                                  : Yes
Forced                                   : No

Audio #1
ID                                       : 2
Format                                   : AC-3
Format/Info                              : Audio Coding 3
Commercial name                          : Dolby Digital
Codec ID                                 : A_AC3
Duration                                 : 1 h 24 min
Bit rate mode                            : Constant
Bit rate                                 : 384 kb/s
Channel(s)                               : 6 channels
Channel layout                           : L R C LFE Ls Rs
Sampling rate                            : 48.0 kHz
Frame rate                               : 31.250 FPS (1536 SPF)
Bit depth                                : 16 bits
Compression mode                         : Lossy
Stream size                              : 233 MiB (3%)
Title                                    : , 6 ch, 384 Kbps
Language                                 : Ukrainian
Service kind                             : Complete Main
Default                                  : Yes
Forced                                   : No

Audio #2
ID                                       : 3
Format                                   :
Format/Info                              : Digital Theater Systems
Codec ID                                 : A_DTS
Duration                                 : 1 h 24 min
Bit rate mode                            : Constant
Bit rate                                 : 1 509 kb/s
Channel(s)                               : 6 channels
Channel layout                           : C L R Ls Rs LFE
Sampling rate                            : 48.0 kHz
Frame rate                               : 93.750 FPS (512 SPF)
Bit depth                                : 24 bits
Compression mode                         : Lossy
Stream size                              : 917 MiB (13%)
Title                                    : , 6 ch, 1509 Kbp
Language                                 : French
Default                                  : No
Forced                                   : No
Скріншоти




Джерело:
Особиста оцінка: 9 - давно не бачив настільки якісне кіно


 Трекер:    Зареєстрований   

Завантажити / скачати мультфільм українською



відео для новачків



 Зареєстрований:   2019-04-05 23:21
 Розмір:   6.78 GB 
 Оцінка мультфільму:   9.6/10 (Голосів: 34)
   
bot 
робот


З нами з: 30.09.07
Востаннє: 26.05.05
Повідомлень: 23368

2019-04-05 23:21  
Тему перенесено з Анонси релізів до форуму Мультфільми в HD


antik_2008

Uberwinder 
VIP


З нами з: 18.11.16
Востаннє: 23.02.20
Повідомлень: 277

2019-04-06 06:13  
Дякую, але зачекаю Remux (у мережі вже бачив, навіть з українським звуком).
Varlemond 
Свій


З нами з: 03.06.12
Востаннє: 23.02.20
Повідомлень: 59

2019-04-06 17:28  
Мульт класний
Anonymous 







2019-04-26 13:04  
9/10
Ваш часовий пояс: GMT + 2 Години

Нова тема   Відповісти