Як приборкати дракона / How to Train Your Dragon (2010) UHD Remux 2160p 4K HDR H.265 Ukr/Eng | Sub Ukr/Eng

Нові коментарі

Нова тема   Відповісти
Автор Повідомлення
Argentum 
Поважний учасник


З нами з: 25.09.11
Востаннє: 19.01.20
Повідомлень: 226

2019-04-04 17:09  
Як приборкати дракона / How to Train Your Dragon (2010) UHD Remux 2160p 4K HDR H.265 Ukr/Eng | Sub Ukr/Eng

Як приборкати дракона / How to Train Your Dragon (2010) UHD Remux 2160p 4K HDR H.265 Ukr/Eng | Sub Ukr/Eng


Жанр: анімація, пригодницький, фентезі, сімейний
Країна: США



Кінокомпанія: DreamWorks Animation
Режисер: Кріс Сандерс, Дін Деблуа
Актори: Джей Барушель, Джерард Батлер, Крейґ Ферґюсон, Амеріка Феррера, Джона Гілл, Крістофер Мінтц-Плассе та інші.

Сюжет:
У маленького селища вікінгів, які спокійно полюють, рибалять та пасуть овець, лише один величезний клопіт - сусіди. Плем'я драконів, яке живе поруч, постійно краде у них вівці та руйнує будівлі - тож зрештою люди в рогатих шоломах починають планувати війну на повне знищення летючих істот. І лише один з них буде намагатись завадити цій війні - хлопець, який потоваришував зі збитим ним драконом.


Тривалість: 01:38:15
Якість: 4K UltraHD Remux 2160p
Відео:
кодек: H.265 (HEVC)
розмір кадру: 3840 х 2160
бітрейт: 44,9 Мб/с
бітова глибина: 10 біт
кольоровий простір: BT.2020 (HDR)

Увага! Перед завантаженням переконайтесь, що ваш пристрій відтворення (та/або ПЗ) підтримує H.265 (HEVC)

Аудіо # 1:
мова: українська
переклад: професійний дубльований
кодек: 5.1
бітрейт: 640 кб/с

Аудіо # 2:
мова: англійська
переклад: оригінал
кодек: 5.1
бітрейт: 1509 кб/с

Субтитри:
мова: українська
тип: програмні (м'які)
формат: *.srt

Субтитри:
мова: англійська
тип: програмні (м'які)
формат: *.srt
Info
General
Unique ID : 236038581225209075517965828061578568643 (0xB193608DA370054A9E2E4FB21B52A3C3)
Complete name : How To Train Your Dragon (2010) [Ukr, Eng] Remux HDR 2160p [Hurtom].
Format :
Format version : Version 4
File size : 32.3 GiB
Duration : 1 h 38 min
Overall bit rate : 47.0 Mb/s
Movie name : How To Train Your Dragon (2010) [Ukr, Eng] Remux HDR 2160p
Encoded date : UTC 2019-05-04 12:34:03
Writing application : v33.1.0 ('Primrose') 64-bit
Writing library : libebml v1.3.7 + v1.5.0
Attachments : HTTYD_550.jpg

Video
ID : 1
Format : HEVC
Format/Info : High Efficiency Video Coding
Format profile : Main [email protected]@High
HDR format : SMPTE ST 2086, HDR10 compatible
Codec ID : V_MPEGH/ISO/HEVC
Duration : 1 h 38 min
Bit rate : 44.9 Mb/s
Width : 3 840 pixels
Height : 2 160 pixels
Display aspect ratio : 16:9
Frame rate mode : Constant
Frame rate : 23.976 (24000/1001) FPS
Color space : YUV
Chroma subsampling : 4:2:0 (Type 2)
Bit depth : 10 bits
Bits/(Pixel*Frame) : 0.226
Stream size : 30.8 GiB (95%)
Title : HEVC 3840*2160 HDR10 @ 44.9 Mbps
Language : Multiple languages
Default : Yes
Forced : Yes
Color range : Limited
Color primaries : BT.2020
Transfer characteristics : PQ
Matrix coefficients : BT.2020 non-constant
Mastering display color pri : Display P3
Mastering display luminance : min: 0.0050 cd/m2, max: 1000 cd/m2
Maximum Content Light Level : 998 cd/m2
Maximum Frame-Average Light : 274 cd/m2

Audio #1
ID : 2
Format : AC-3
Format/Info : Audio Coding 3
Codec ID : A_AC3
Duration : 1 h 37 min
Bit rate : 640 kb/s
Channel(s) : 6 channels
Sampling rate : 48.0 kHz
Frame rate : 31.250 FPS (1536 SPF)
Compression mode : Lossy
Stream size : 448 MiB (1%)
Title : 5.1 @ 640 Kbps
Language : Ukrainian
Default : Yes
Forced : Yes

Audio #2
ID : 3
Format :
Format/Info : Digital Theater Systems
Codec ID : A_DTS
Duration : 1 h 38 min
Bit rate mode : Constant
Bit rate : 1 509 kb/s
Channel(s) : 6 channels
Channel layout : C L R Ls Rs LFE
Sampling rate : 48.0 kHz
Frame rate : 93.750 FPS (512 SPF)
Bit depth : 24 bits
Compression mode : Lossy
Stream size : 1.03 GiB (3%)
Title : 5.1 @ 1509 Kbps
Language : English
Default : No
Forced : No

Text #1
ID : 4
Format : UTF-8
Codec ID : S_TEXT/UTF8
Codec ID/Info : UTF-8 Plain Text
Duration : 1 h 28 min
Bit rate : 67 b/s
Count of elements : 871
Stream size : 43.7 KiB (0%)
Title : Full
Language : Ukrainian
Default : No
Forced : No

Text #2
ID : 5
Format : UTF-8
Codec ID : S_TEXT/UTF8
Codec ID/Info : UTF-8 Plain Text
Duration : 1 h 28 min
Bit rate : 45 b/s
Count of elements : 866
Stream size : 29.4 KiB (0%)
Title : Full
Language : English
Default : No
Forced : No
Скріншоти







Джерело:
Особиста оцінка: 8 - мені сподобалося


Золотий реліз (завантажене не впливає на рейтинг)
 Трекер:    Зареєстрований   

Завантажити / скачати мультфільм українською



відео для новачків



 Зареєстрований:   2019-05-04 15:36
 Розмір:   32.29 GB 
 Оцінка мультфільму:   8.8/10 (Голосів: 8)
   
bot 
робот


З нами з: 30.09.07
Востаннє: 26.05.05
Повідомлень: 23040

2019-04-05 14:17  
Тему перенесено з Анонси релізів до форуму Мультфільми в HD


Argentum

Cerguk 
Свій


З нами з: 30.09.09
Востаннє: 19.01.20
Повідомлень: 95

2019-04-06 06:59  
Трішки не по темі, але хто знає коли можна очікувати третю частину ? Бо в анонсах релізів не знайшов її, а москальською вже є.
SASjedi 
Новенький


З нами з: 24.01.15
Востаннє: 29.11.19
Повідомлень: 1

2019-05-03 13:51  
Хоча б одного сіда мені. Я роздаю роками, терабайтами, з підвищеним пріоритетом на роздачу і на цей трекер.
AMD_DURON 
Новенький


З нами з: 14.08.10
Востаннє: 18.01.20
Повідомлень: 11

2019-05-04 11:08  
Благаю, станьте хтось на роздачу!
Величезне дяку і низький уклін:)

Argentum 
Поважний учасник


З нами з: 25.09.11
Востаннє: 19.01.20
Повідомлень: 226

2019-05-04 11:43  
Через декілька годин реліз буде оновлено і буде роздача.
Argentum 
Поважний учасник


З нами з: 25.09.11
Востаннє: 19.01.20
Повідомлень: 226

2019-05-04 15:38  
Реліз оновлено! Необхідно перезавантажити торрент.

AMD_DURON 
Новенький


З нами з: 14.08.10
Востаннє: 18.01.20
Повідомлень: 11

2019-05-05 09:05  
Я перепрошую, але після того як реліз оновили деякий час йшло завантаження, зараз знову ніхто не роздає. Станьте будь ласка на роздачу.
Argentum 
Поважний учасник


З нами з: 25.09.11
Востаннє: 19.01.20
Повідомлень: 226

2019-05-05 15:13  
AMD_DURON написано:
Я перепрошую, але після того як реліз оновили деякий час йшло завантаження, зараз знову ніхто не роздає

Я був на роздачі всю ніч. Спробуйте вказати інший порт для торрент клієнта. Наприклад 8999

AMD_DURON 
Новенький


З нами з: 14.08.10
Востаннє: 18.01.20
Повідомлень: 11

2019-05-05 19:18  
річ в тому що не тільки цей мультфільм завантажувався... інші файли з інших роздач з толоки завантажувалися нормально, а конкретно цей реліз не хотів завантажуватися... але нічого, з гіркою бідою скачали і вже навіть подивилися всією сім'єю з дітьми:) за що велике дякую!
kpomed 
Новенький


З нами з: 12.10.13
Востаннє: 19.01.20
Повідомлень: 22

2019-05-18 09:29  
Дякую - сідую %)
Ваш часовий пояс: GMT + 2 Години

Нова тема   Відповісти