Таллі / Tully (2018) Remux 1080p Ukr/Eng | Sub Eng

Нові коментарі

Нова тема   Відповісти
Автор Повідомлення
antik_2008 
Релізер і модератор відео


З нами з: 20.10.08
Востаннє: 20.04.19
Повідомлень: 1949

2019-04-04 17:41  
Таллі / Tully (2018) Remux 1080p Ukr/Eng | Sub Eng

Таллі / Tully (2018) Remux 1080p Ukr/Eng | Sub Eng


Жанр: детектив, драма, комедія
Країна: США





Кінокомпанія: Focus Features, Bron Studios
Режисер: Джейсон Райтман
Актори: Шарліз Терон, Маккензі Девіс, Рон Лівінгстон, Марк Дюпліс, Ілейн Тан

Сюжет:
У центрі сюжету фільма «Таллі» опиняється Марло (Шарліз Терон) – багатодітна мати середнього віку. Вирішивши допомогти своїй дружині з доглядом за дітьми, її чоловік Дрю (Рон Лівінгстон) наймає няню на ім'я Таллі (Маккензі Девіс) в надії, що та зможе хоч якось розвантажити її. На подив Дрю, між Марло і Таллі зав'язуються якісь дивні стосунки.


Тривалість: 01:35:36
Якість: Remux 1080p
Відео:
кодек:
розмір кадру: 1920x1080
бітрейт: ~31.9 мб/с

Аудіо # 1:
мова: українська
переклад: багатоголосий закадровий
кодек: 2.0
бітрейт: 192 кб/с

Аудіо # 2:
мова: англійська
переклад: оригінал
кодек: 5.1
бітрейт: 448 кб/с

Аудіо # 3:
мова: англійська
переклад: оригінал
кодек: -HD MA 5.1
бітрейт: 3173 кб/с

Субтитри:
мова: англійська
тип: програмні (м'які)
формат: *.srt
Info
Код:
General
Complete name                            : Tully (2018) Remux 1080p [UKR_ENG] [Hurtom].
Format                                   :
Format version                           : Version 4
File size                                : 23.8 GiB
Duration                                 : 1 h 35 min
Overall bit rate mode                    : Variable
Overall bit rate                         : 35.7 Mb/s
Movie name                               : Tully (2018) Remux 1080p [UKR_ENG] [Hurtom]
Encoded date                             : UTC 2019-04-04 13:51:11
Writing application                      : v30.1.0 ('Forever And More') 64-bit
Writing library                          : libebml v1.3.6 + v1.4.9

Video
ID                                       : 1
Format                                   : AVC
Format/Info                              : Advanced Video Codec
Format profile                           : [email protected]
Format settings                          : CABAC / 4 Ref Frames
Format settings, CABAC                   : Yes
Format settings, RefFrames               : 4 frames
Format settings, GOP                     : M=3, N=12
Codec ID                                 : V_MPEG4/ISO/AVC
Duration                                 : 1 h 35 min
Bit rate mode                            : Variable
Bit rate                                 : 31.9 Mb/s
Maximum bit rate                         : 35.0 Mb/s
Width                                    : 1 920 pixels
Height                                   : 1 080 pixels
Display aspect ratio                     : 16:9
Frame rate mode                          : Constant
Frame rate                               : 23.976 (24000/1001) FPS
Color space                              : YUV
Chroma subsampling                       : 4:2:0
Bit depth                                : 8 bits
Scan type                                : Progressive
Bits/(Pixel*Frame)                       : 0.641
Stream size                              : 21.3 GiB (89%)
Language                                 : English
Default                                  : Yes
Forced                                   : No

Audio #1
ID                                       : 2
Format                                   : AC-3
Format/Info                              : Audio Coding 3
Commercial name                          : Dolby Digital
Codec ID                                 : A_AC3
Duration                                 : 1 h 35 min
Bit rate mode                            : Constant
Bit rate                                 : 192 kb/s
Channel(s)                               : 2 channels
Channel layout                           : L R
Sampling rate                            : 48.0 kHz
Frame rate                               : 31.250 FPS (1536 SPF)
Bit depth                                : 16 bits
Compression mode                         : Lossy
Stream size                              : 131 MiB (1%)
Title                                    : AС3, 2 ch, 192 Кбт/с
Language                                 : Ukrainian
Service kind                             : Complete Main
Default                                  : Yes
Forced                                   : No

Audio #2
ID                                       : 3
Format                                   : AC-3
Format/Info                              : Audio Coding 3
Commercial name                          : Dolby Digital
Codec ID                                 : A_AC3
Duration                                 : 1 h 35 min
Bit rate mode                            : Constant
Bit rate                                 : 448 kb/s
Channel(s)                               : 6 channels
Channel layout                           : L R C LFE Ls Rs
Sampling rate                            : 48.0 kHz
Frame rate                               : 31.250 FPS (1536 SPF)
Bit depth                                : 16 bits
Compression mode                         : Lossy
Stream size                              : 306 MiB (1%)
Title                                    : AС3, 6 ch, 448 Кбт/с
Language                                 : English
Service kind                             : Complete Main
Default                                  : No
Forced                                   : No

Audio #3
ID                                       : 4
Format                                   : XLL
Format/Info                              : Digital Theater Systems
Commercial name                          : -HD Master Audio
Codec ID                                 : A_DTS
Duration                                 : 1 h 35 min
Bit rate mode                            : Variable
Bit rate                                 : 3 173 kb/s
Channel(s)                               : 6 channels
Channel layout                           : C L R Ls Rs LFE
Sampling rate                            : 48.0 kHz
Frame rate                               : 93.750 FPS (512 SPF)
Bit depth                                : 24 bits
Compression mode                         : Lossless
Stream size                              : 2.12 GiB (9%)
Title                                    : -HD MA, 6 ch, 3173 Кбт/c
Language                                 : English
Default                                  : No
Forced                                   : No

Text
ID                                       : 5
Format                                   : UTF-8
Codec ID                                 : S_TEXT/UTF8
Codec ID/Info                            : UTF-8 Plain Text
Duration                                 : 1 h 33 min
Bit rate                                 : 69 b/s
Count of elements                        : 1630
Stream size                              : 47.3 KiB (0%)
Language                                 : English
Default                                  : No
Forced                                   : No
Скріншоти







Підтримати купівлю інших фільмів можна тут.

Подяка пану AngryBirdsUA за доріжку.

Джерело: &
Особиста оцінка: 0 - не дивився


Золотий реліз (завантажене не впливає на рейтинг)
 Трекер:    Зареєстрований   

Завантажити / скачати фільм українською



відео для новачків



 Зареєстрований:   2019-04-04 17:41
 Розмір:   23.83 GB 
 Оцінка фільму:   8.3/10 (Голосів: 14)
   
Інші релізи
   Таллі / Tully (2018) 1080p Ukr/Eng | Sub Eng antik_2008  30 / 0   9.45 GB   2019-04-04 15:16 
   Таллі / Tully (2018) Ukr/Eng antik_2008  104 / 1   1.77 GB   2019-04-04 15:00 
   Таллі / Tully (2018) AVC Ukr/Eng | Sub Eng 11FrYkT  61 / 1   2.01 GB   2019-04-03 16:50 
   Таллі / Tully (2018) 720p Ukr/Eng | Sub Eng 11FrYkT  40 / 0   4.06 GB   2019-04-03 15:47 
vitoldio 
Новенький


З нами з: 28.07.16
Востаннє: 22.04.19
Повідомлень: 9

2019-04-04 21:12  
Підкажіть будь-ласка, фільм часом не про лесбійок? Щоб не качати даремно.
Anоnymous 
VIP


З нами з: 25.08.18
Востаннє: 24.04.19
Повідомлень: 683

2019-04-04 21:29  
vitoldio
Ні, звісно ні, вантажте на здоров'я.

Barilo 
Частий відвідувач


З нами з: 22.05.11
Востаннє: 23.04.19
Повідомлень: 45

2019-04-05 15:01  
А я люблю про лесбійок. Бо всяка гомофобія це зло,морок і "споконвічні традиції" які пролили крові більше ніж всі геї з лесбіянками разом взяті. Достатньо подивитися або на Німеччину першої половини минулого сторіччя або за порєбрік нині
waldi-hurtom 
VIP


З нами з: 07.10.12
Востаннє: 24.04.19
Повідомлень: 954

2019-04-05 17:05  
Упс! Перш за все, переплутані жанри. Замість детектива - містерія чи фентезі. Комедії теж не дуже помітив. Фільм для жінок. Сценарістка погралася зі своїм досвідом народження та виховання 3-х діточок і вийшла така собі фантазія. Не знаю, як для інших чоловіків, але як на мене страшенно занудно. Поки дружина дивилася, я проспав середину, то, можливо, втратив щось непоправно важливе. Коротше, чоловіча оцінка 3 з 10. Жінка теж не дуже вдоволена - депресивне, наближене до життя. Може, молодь сприйме це як гру, хто зна?
P.S. Жодного лесбосу немає, тема цицьок також не розкрита. Вся фішка в легких наркотиках і галюцинаціях.

kabizdoh 
Новенький


З нами з: 08.09.11
Востаннє: 20.04.19
Повідомлень: 9

2019-04-06 11:36  
Переплутані жанри - це великий мінус. Якась падлюка навмисно мене змусила качати, а потім дивитися це некчемне нудне кіно. Це гаплик.
Ваш часовий пояс: GMT + 2 Години

Нова тема   Відповісти