Мері Поппінс повертається / Mary Poppins Returns (2018) 1080p Ukr/Eng | Sub Eng

Нові коментарі

Нова тема   Відповісти
Автор Повідомлення
antik_2008 
Релізер і модератор відео


З нами з: 20.10.08
Востаннє: 20.04.19
Повідомлень: 1949

2019-04-04 16:15  
Мері Поппінс повертається / Mary Poppins Returns (2018) 1080p Ukr/Eng | Sub Eng

Мері Поппінс повертається / Mary Poppins Returns (2018) 1080p Ukr/Eng | Sub Eng


Жанр: комедія, мюзикл, сімейний, фентезі
Країна: США





Кінокомпанія: Walt Disney Pictures
Режисер: Роб Маршалл
Актори: Емілі Блант, Лін-Мануель Міранда, Бен Вішоу, Емілі Мортімер, Піксі Дейвіс, Натанаель Салех, Джоел Довсон, Джулі Волтерс, Меріл Стріп, Колін Ферт та інші

Сюжет:
Події розгортаються в Лондоні періоду кризи. Майкл Бенкс, тепер уже дорослий чоловік зі своєю сім'єю, береться за тимчасову роботу в одному з лондонських банків, тому самому, де раніше працювали його батько та дід. Він і троє його дітей, Анабель, Джон і Джорджі, живуть на вулиці Вишневій, в будинку під номером 17, і для них настали непрості часи. Сім'я важко переживає раптову смерть дружини Майкла, отож будинок перебуває в стані постійного хаосу, незважаючи на всі зусилля їхньої добродушної, але вкрай нерозторопної економки Елен. Сувора дійсність і тягар втрати важким каменем лягли на плечі сім'ї, і дітям доводиться брати на себе дорослі обов'язки, занадто швидко розлучаючись з безтурботним дитинством.


Тривалість: 02:10:29
Якість: 1080p

Відео:
кодек:
розмір кадру: 1920x804
бітрейт: 7500 кб/с

Аудіо # 1:
мова: українська
переклад: професійний дубльований | студія LeDoyen
кодек: 5.1
бітрейт: 640 кб/с

Аудіо # 2:
мова: українська
переклад: професійний дубльований | студія LeDoyen
кодек: 5.1
бітрейт: 1536 кб/с

Аудіо # 3:
мова: англійська
переклад: оригінал
кодек: 5.1
бітрейт: 640 кб/с

Аудіо # 4:
мова: англійська
переклад: оригінал
кодек: 5.1
бітрейт: 1536 кб/с

Субтитри:
мова: англійська
тип: програмні (м'які)
формат: *.srt
Info
General
Complete name : Mary Poppins Returns (2018) 1080p [ukr,eng] [ViDeO_Hurtom].
Format :
Format version : Version 4
File size : 10.8 GiB
Duration : 2 h 10 min
Overall bit rate : 11.8 Mb/s
Movie name : Mary Poppins Returns (2018) 1080p [ukr,eng] [ViDeO_Hurtom]
Encoded date : UTC 2019-04-04 13:02:56
Writing application : v30.1.0 ('Forever And More') 64-bit
Writing library : libebml v1.3.6 + v1.4.9

Video
ID : 1
Format : AVC
Format/Info : Advanced Video Codec
Format profile : [email protected]
Format settings : CABAC / 5 Ref Frames
Format settings, CABAC : Yes
Format settings, RefFrames : 5 frames
Codec ID : V_MPEG4/ISO/AVC
Duration : 2 h 10 min
Bit rate : 7 500 kb/s
Width : 1 920 pixels
Height : 804 pixels
Display aspect ratio : 2.40:1
Frame rate mode : Constant
Frame rate : 23.976 (24000/1001) FPS
Color space : YUV
Chroma subsampling : 4:2:0
Bit depth : 8 bits
Scan type : Progressive
Bits/(Pixel*Frame) : 0.203
Stream size : 6.84 GiB (64%)
Writing library : core 157 r2935 545de2f
Encoding settings : cabac=1 / ref=5 / deblock=1:-3:-3 / analyse=0x3:0x113 / me=umh / subme=11 / psy=1 / psy_rd=1.05:0.15 / mixed_ref=1 / me_range=24 / chroma_me=1 / trellis=2 / 8x8dct=1 / cqm=0 / deadzone=21,11 / fast_pskip=0 / chroma_qp_offset=-6 / threads=5 / lookahead_threads=1 / sliced_threads=0 / nr=0 / decimate=0 / interlaced=0 / bluray_compat=0 / constrained_intra=0 / bframes=11 / b_pyramid=2 / b_adapt=2 / b_bias=0 / direct=3 / weightb=1 / open_gop=0 / weightp=2 / keyint=240 / keyint_min=23 / scenecut=40 / intra_refresh=0 / rc=2pass / mbtree=0 / bitrate=7500 / ratetol=1.0 / qcomp=0.70 / qpmin=0 / qpmax=69 / qpstep=4 / cplxblur=20.0 / qblur=0.5 / ip_ratio=1.40 / pb_ratio=1.30 / aq=1:0.80
Language : English
Default : Yes
Forced : No

Audio #1
ID : 2
Format : AC-3
Format/Info : Audio Coding 3
Commercial name : Dolby Digital
Codec ID : A_AC3
Duration : 2 h 10 min
Bit rate mode : Constant
Bit rate : 640 kb/s
Channel(s) : 6 channels
Channel layout : L R C LFE Ls Rs
Sampling rate : 48.0 kHz
Frame rate : 31.250 FPS (1536 SPF)
Bit depth : 16 bits
Compression mode : Lossy
Stream size : 597 MiB (5%)
Title : 5.1 @ 640 kbps
Language : Ukrainian
Service kind : Complete Main
Default : No
Forced : No

Audio #2
ID : 3
Format :
Format/Info : Digital Theater Systems
Codec ID : A_DTS
Duration : 2 h 10 min
Bit rate mode : Constant
Bit rate : 1 509 kb/s
Channel(s) : 6 channels
Channel layout : C L R Ls Rs LFE
Sampling rate : 48.0 kHz
Frame rate : 93.750 FPS (512 SPF)
Bit depth : 24 bits
Compression mode : Lossy
Stream size : 1.38 GiB (13%)
Title : 5.1 @ 1536 kbps
Language : Ukrainian
Default : Yes
Forced : No

Audio #3
ID : 4
Format : AC-3
Format/Info : Audio Coding 3
Commercial name : Dolby Digital
Codec ID : A_AC3
Duration : 2 h 10 min
Bit rate mode : Constant
Bit rate : 640 kb/s
Channel(s) : 6 channels
Channel layout : L R C LFE Ls Rs
Sampling rate : 48.0 kHz
Frame rate : 31.250 FPS (1536 SPF)
Bit depth : 16 bits
Compression mode : Lossy
Stream size : 597 MiB (5%)
Title : 5.1 @ 640 kbps
Language : English
Service kind : Complete Main
Default : No
Forced : No

Audio #4
ID : 5
Format :
Format/Info : Digital Theater Systems
Codec ID : A_DTS
Duration : 2 h 10 min
Bit rate mode : Constant
Bit rate : 1 509 kb/s
Channel(s) : 6 channels
Channel layout : C L R Ls Rs LFE
Sampling rate : 48.0 kHz
Frame rate : 93.750 FPS (512 SPF)
Bit depth : 24 bits
Compression mode : Lossy
Stream size : 1.38 GiB (13%)
Title : 5.1 @ 1536 kbps
Language : English
Default : No
Forced : No

Text
ID : 6
Format : UTF-8
Codec ID : S_TEXT/UTF8
Codec ID/Info : UTF-8 Plain Text
Duration : 2 h 5 min
Bit rate : 77 b/s
Count of elements : 2276
Stream size : 70.9 KiB (0%)
Title : Full
Language : English
Default : Yes
Forced : No

Menu
00:00:00.000 : en:00:00:00.000
00:06:38.064 : en:00:06:38.064
00:15:22.046 : en:00:15:22.046
00:19:18.032 : en:00:19:18.032
00:26:01.894 : en:00:26:01.894
00:33:10.405 : en:00:33:10.405
00:39:05.426 : en:00:39:05.426
00:46:11.352 : en:00:46:11.352
00:57:34.034 : en:00:57:34.034
01:06:14.387 : en:01:06:14.387
01:15:55.801 : en:01:15:55.801
01:21:51.365 : en:01:21:51.365
01:32:18.199 : en:01:32:18.199
01:36:29.826 : en:01:36:29.826
01:53:58.331 : en:01:53:58.331
02:03:47.962 : en:02:03:47.962
Скріншоти




Подяка пану Hanway за синхронізацію звуку.

Джерело:
Особиста оцінка: 0 - не дивився


 Трекер:    Зареєстрований   

Завантажити / скачати фільм українською



відео для новачків



 Зареєстрований:   2019-04-04 16:15
 Розмір:   10.76 GB 
 Оцінка фільму:   9.1/10 (Голосів: 16)
   
-VJ- 
VIP


З нами з: 01.11.09
Востаннє: 19.04.19
Повідомлень: 670

2019-04-04 16:40  
Качати таку, чи ще буде в H.265? Happy
antik_2008 
Релізер і модератор відео


З нами з: 20.10.08
Востаннє: 20.04.19
Повідомлень: 1949

2019-04-04 16:54  
-VJ- написано:
Качати таку, чи ще буде в H.265?

від мене
UHD Remux 4K 2160p HDR H.265
_______________________________________
H.265 1080p

від мене ні

deus207 
Частий відвідувач


З нами з: 19.03.10
Востаннє: 20.04.19
Повідомлень: 26

2019-04-04 17:19  
antik_2008 написано:
1800p

точно? Happy

Mykele 
Новенький


З нами з: 08.09.16
Востаннє: 20.04.19
Повідомлень: 6

2019-04-04 19:17  
Хто дивився, переклад пісень є?
darklight94 
Свій


З нами з: 08.07.18
Востаннє: 20.04.19
Повідомлень: 56

2019-04-04 19:27  
Цитата:
переклад пісень є?

Є

Ваш часовий пояс: GMT + 2 Години

Нова тема   Відповісти