Скло / Glass (2019) 1080p Ukr/Eng | Sub Eng

Нові коментарі

Нова тема   Відповісти
Автор Повідомлення
Anonymous 







2019-04-04 15:51  
Скло / Glass (2019) 1080p Ukr/Eng | Sub Eng

Скло / Glass (2019) 1080p Ukr/Eng | Sub Eng


Жанр: детектив, драма, трилер, фантастика
Країна: США





Кінокомпанія: Universal Pictures, Blumhouse Productions
Режисер: М. Найт Шьямалан
Актори: Джеймс МакЕвой, Брюс Вілліс, Семюел Л. Джексон, Аня Тейлор-Джой, Сара Полсон, Спенсер Тріт Кларк, Чарлейн Вудард, Люк Кірбі, М. Найт Ш'ямалан

Сюжет:
Дві протилежності Елайджа Прайс на прізвисько Містер Скло, чиї кістки можуть зламатися від найменшого на них впливу, і невразливий, але злегка постарілий супергерой Девід Данн виявилися разом в одній психіатричній лікарні. Те, що вони вважають своєю перевагою, для суспільства є вадами. У тій же психушці опинився ще один хлопець, у якого є безліч особистостей – його звуть Кевін, а іноді просто Спліт. Містер Скло зумів переконати хлопця встати на свою сторону, щоб разом бігти з цього місця. Елайджа знає, що одна з особистостей Спліта – це жахливий і неконтрольований Звір, рівних якому складно знайти. Девід Данн зобов'язаний їх зупинити. Якщо випустити Звіра на свободу, нічого доброго не буде.


Тривалість: 02:09:02
Якість: 1080p
Відео:
кодек:
розмір кадру: 1920x804
бітрейт: 13,3 Мб/с

Аудіо # 1:
мова: українська
переклад: професійний дубльований | Ліцензія
кодек: 5.1
бітрейт: 448 кб/с

Аудіо # 2:
мова: українська
переклад: професійний дубльований | Line
кодек: 2.0
бітрейт: 192 кб/с

Аудіо # 3:
мова: англійська
переклад: оригінал
кодек: 5.1
бітрейт: 640 кб/с

Аудіо # 4:
мова: англійська
переклад: оригінал
кодек: 5.1
бітрейт: 1536 кб/с

Субтитри (Full, SDH):
мова: англійська
тип: програмні (м'які)
формат: *.srt
Info
Код:
General
Complete name                            : Glass (2019) [UKR_ENG] 1080p [ViDeO_Hurtom].
Format                                   :
Format version                           : Version 4
File size                                : 14.5 GiB
Duration                                 : 2 h 9 min
Overall bit rate                         : 16.1 Mb/s
Movie name                               : Glass (2019) BDRip1080p [UKR_ENG] [ViDeO_Hurtom]
Encoded date                             : UTC 2019-05-04 20:00:03
Writing application                      : v30.1.0 ('Forever And More') 64-bit
Writing library                          : libebml v1.3.6 + v1.4.9

Video
ID                                       : 1
Format                                   : AVC
Format/Info                              : Advanced Video Codec
Format profile                           : [email protected]
Format settings                          : CABAC / 5 Ref Frames
Format settings, CABAC                   : Yes
Format settings, RefFrames               : 5 frames
Codec ID                                 : V_MPEG4/ISO/AVC
Duration                                 : 2 h 9 min
Bit rate                                 : 13.3 Mb/s
Width                                    : 1 920 pixels
Height                                   : 804 pixels
Display aspect ratio                     : 2.40:1
Frame rate mode                          : Constant
Frame rate                               : 23.976 (24000/1001) FPS
Color space                              : YUV
Chroma subsampling                       : 4:2:0
Bit depth                                : 8 bits
Scan type                                : Progressive
Bits/(Pixel*Frame)                       : 0.360
Stream size                              : 12.0 GiB (83%)
Writing library                          : core 157 r2938 2b00a84 [email protected] Mod
Encoding settings                        : cabac=1 / ref=5 / deblock=1:-3:-3 / analyse=0x3:0x133 / me=umh / subme=10 / psy=1 / psy_rd=1.05:0.00 / mixed_ref=1 / me_range=32 / chroma_me=1 / trellis=2 / 8x8dct=1 / cqm=0 / deadzone=21,11 / fast_pskip=0 / chroma_qp_offset=-2 / threads=12 / lookahead_threads=2 / sliced_threads=0 / nr=0 / decimate=0 / interlaced=0 / bluray_compat=0 / constrained_intra=0 / bframes=8 / b_pyramid=2 / b_adapt=2 / b_bias=0 / direct=3 / weightb=1 / open_gop=0 / weightp=2 / keyint=250 / keyint_min=24 / scenecut=40 / intra_refresh=0 / rc_lookahead=250 / rc=crf / mbtree=0 / crf=15.5 / qcomp=0.60 / qpmin=0 / qpmax=69 / qpstep=4 / vbv_maxrate=62500 / vbv_bufsize=78125 / crf_max=0.0 / nal_hrd=none / filler=0 / ip_ratio=1.30 / pb_ratio=1.20 / aq=3:0.80
Language                                 : English
Default                                  : Yes
Forced                                   : No
Color range                              : Limited
Color primaries                          : BT.709
Matrix coefficients                      : BT.709

Audio #1
ID                                       : 2
Format                                   : AC-3
Format/Info                              : Audio Coding 3
Commercial name                          : Dolby Digital
Codec ID                                 : A_AC3
Duration                                 : 2 h 9 min
Bit rate mode                            : Constant
Bit rate                                 : 448 kb/s
Channel(s)                               : 6 channels
Channel layout                           : L R C LFE Ls Rs
Sampling rate                            : 48.0 kHz
Frame rate                               : 31.250 FPS (1536 SPF)
Bit depth                                : 16 bits
Compression mode                         : Lossy
Stream size                              : 413 MiB (3%)
Title                                    : 5.1 @ 448 kbps
Language                                 : Ukrainian
Service kind                             : Complete Main
Default                                  : Yes
Forced                                   : No

Audio #2
ID                                       : 3
Format                                   : AC-3
Format/Info                              : Audio Coding 3
Commercial name                          : Dolby Digital
Codec ID                                 : A_AC3
Duration                                 : 2 h 9 min
Bit rate mode                            : Constant
Bit rate                                 : 192 kb/s
Channel(s)                               : 2 channels
Channel layout                           : L R
Sampling rate                            : 48.0 kHz
Frame rate                               : 31.250 FPS (1536 SPF)
Bit depth                                : 16 bits
Compression mode                         : Lossy
Stream size                              : 177 MiB (1%)
Title                                    : 2.0 @ 192 kbps
Language                                 : Ukrainian
Service kind                             : Complete Main
Default                                  : No
Forced                                   : No

Audio #3
ID                                       : 4
Format                                   : AC-3
Format/Info                              : Audio Coding 3
Commercial name                          : Dolby Digital
Codec ID                                 : A_AC3
Duration                                 : 2 h 9 min
Bit rate mode                            : Constant
Bit rate                                 : 640 kb/s
Channel(s)                               : 6 channels
Channel layout                           : L R C LFE Ls Rs
Sampling rate                            : 48.0 kHz
Frame rate                               : 31.250 FPS (1536 SPF)
Bit depth                                : 16 bits
Compression mode                         : Lossy
Stream size                              : 591 MiB (4%)
Title                                    : 5.1 @ 640 kbps
Language                                 : English
Service kind                             : Complete Main
Default                                  : No
Forced                                   : No

Audio #4
ID                                       : 5
Format                                   :
Format/Info                              : Digital Theater Systems
Codec ID                                 : A_DTS
Duration                                 : 2 h 9 min
Bit rate mode                            : Constant
Bit rate                                 : 1 509 kb/s
Channel(s)                               : 6 channels
Channel layout                           : C L R Ls Rs LFE
Sampling rate                            : 48.0 kHz
Frame rate                               : 93.750 FPS (512 SPF)
Bit depth                                : 24 bits
Compression mode                         : Lossy
Stream size                              : 1.36 GiB (9%)
Title                                    : 5.1 @ 1536 kbps
Language                                 : English
Default                                  : No
Forced                                   : No

Text #1
ID                                       : 6
Format                                   : UTF-8
Codec ID                                 : S_TEXT/UTF8
Codec ID/Info                            : UTF-8 Plain Text
Duration                                 : 2 h 1 min
Bit rate                                 : 43 b/s
Count of elements                        : 1197
Stream size                              : 38.9 KiB (0%)
Title                                    : Full
Language                                 : English
Default                                  : No
Forced                                   : No

Text #2
ID                                       : 7
Format                                   : UTF-8
Codec ID                                 : S_TEXT/UTF8
Codec ID/Info                            : UTF-8 Plain Text
Duration                                 : 2 h 2 min
Bit rate                                 : 50 b/s
Count of elements                        : 1561
Stream size                              : 45.7 KiB (0%)
Title                                    : SDH
Language                                 : English
Default                                  : No
Forced                                   : No

Menu
00:00:00.000                             : en:Chapter 01
00:04:08.457                             : en:Chapter 02
00:09:36.367                             : en:Chapter 03
00:14:30.078                             : en:Chapter 04
00:19:49.897                             : en:Chapter 05
00:24:41.063                             : en:Chapter 06
00:29:45.826                             : en:Chapter 07
00:35:00.598                             : en:Chapter 08
00:39:07.595                             : en:Chapter 09
00:47:28.220                             : en:Chapter 10
00:57:16.224                             : en:Chapter 11
01:02:55.271                             : en:Chapter 12
01:09:26.829                             : en:Chapter 13
01:14:30.299                             : en:Chapter 14
01:21:43.774                             : en:Chapter 15
01:30:10.530                             : en:Chapter 16
01:38:15.515                             : en:Chapter 17
01:44:08.742                             : en:Chapter 18
01:54:07.215                             : en:Chapter 19
02:03:00.290                             : en:Chapter 20
Скріншоти















Джерело: &
Особиста оцінка: 6 - третій сорт - не брак


 Трекер:    Зареєстрований   

Завантажити / скачати фільм українською



відео для новачків



 Зареєстрований:   2019-05-04 23:13
 Розмір:   14.51 GB 
 Оцінка фільму:   8.6/10 (Голосів: 79)
   
Інші релізи
   Скло / Glass (2019) UHD Remux 2160p 4K HDR H.265 Ukr/Eng kocyxuh  2 / 0   63.79 GB   2019-06-30 21:36 
   Скло / Glass (2019) 1080p H.265 Ukr/Eng | Sub Eng -Star-Lord-  7 / 0   8.05 GB   2019-05-19 14:32 
   Скло / Glass (2019) Remux 1080p Ukr/Eng | Sub Eng IronBee  2 / 0   30.76 GB   2019-05-18 20:28 
   Скло / Glass (2019) antik_2008  7 / 0   1.73 GB   2019-05-07 15:37 
   Скло / Glass (2019) AVC uafilm.tv  16 / 4   1.46 GB   2019-05-04 20:11 
   Скло / Glass (2019) 720p Ukr/Eng | Sub Eng 11FrYkT  18 / 2   5.77 GB   2019-05-04 20:03 
   Скло / Glass (2019) AVC Ukr/Eng | Sub Eng 11FrYkT  6 / 0   2.41 GB   2019-05-04 10:51 
   Скло / Glass (2019) Ukr/Eng Neo_Men  18 / 0   2.17 GB   2019-04-08 14:28 
   Скло / Glass (2019) UHD mini 2160p 4K HDR H.265 Ukr/Eng | Sub Eng/Fra/Spa Neo_Men  4 / 0   18.34 GB   2019-04-08 14:07 
bot 
робот


З нами з: 30.09.07
Востаннє: 26.05.05
Повідомлень: 21788

2019-04-04 21:45  
Тему перенесено з Анонси релізів до форуму Фільми в HD


antik_2008

AMOROSO 
Частий відвідувач


З нами з: 01.01.12
Востаннє: 18.08.19
Повідомлень: 47

2019-04-05 19:30  
Дивився в кінотеатрі, варте перегляду
Mongoose 
Свій


З нами з: 27.03.16
Востаннє: 22.08.19
Повідомлень: 140

2019-04-05 21:01  
Такє...
Графіка жахлива, Звір коли перекидає авто - видно тіль на "зеленому екрані", не знав, що "Голівуд" таке пропускає

Anonymous 







2019-04-06 01:05  
Замінив відео на 1080p

Dr.S 
Свій


З нами з: 30.05.17
Востаннє: 21.08.19
Повідомлень: 100

2019-04-06 14:12  
Особисто мені не сподобалось. Нудно і не цікаво Sad (1)
SimplyMax 
Новенький


З нами з: 21.03.13
Востаннє: 18.08.19
Повідомлень: 3

2019-04-06 19:46  
Так це треба дивитися після фільму "Спліт"?
piliq 
Частий відвідувач


З нами з: 04.02.12
Востаннє: 21.08.19
Повідомлень: 35

2019-04-06 21:27  
SimplyMax
І після "Невразливий" 2000

vas361 
Свій


З нами з: 07.10.16
Востаннє: 21.08.19
Повідомлень: 65

2019-04-07 12:48  
таке шось.. 4\10.
не розумію як цей фільм зібрав 240 млн.
людей тупо розвели)))

biguniak 
Новенький


З нами з: 24.09.12
Востаннє: 21.08.19
Повідомлень: 5

2019-04-08 12:12  
я дуже розчарований...
fissilecore 
Новенький


З нами з: 05.05.18
Востаннє: 21.08.19
Повідомлень: 2

2019-04-09 12:51  
Фільм був цікавий але кінець просто зіпсував всі враження.
Думав що фільм про психічні розлади а виявилось супергеройська маячня.

Custo 12 
Свій


З нами з: 08.11.16
Востаннє: 17.08.19
Повідомлень: 101

2019-04-09 14:03  
Дуже мені зайшло кіно. Переживав трохи після негативних відгуків. Але атмосфера в трилогії витримана. З задоволенням подивився.
beFrost 
Новенький


З нами з: 02.03.18
Востаннє: 07.08.19
Повідомлень: 1

2019-04-30 01:55  
Що означає розчаровано? Вам показали новий комікс, по іншому, наближений до реальності, нова історія,
а не хепі енд
. Як на мене це 9 з 10
(За Брюса обідно)
.

Anonymous 







2019-05-04 23:15  
Реліз оновлено. Додав АС3 5.1 @ 448 kbps

Ваш часовий пояс: GMT + 2 Години

Нова тема   Відповісти