Таллі / Tully (2018) 1080p Ukr/Eng | Sub Eng

Нові коментарі

Нова тема   Відповісти
Автор Повідомлення
Anonymous 







2019-04-04 15:16  
Таллі / Tully (2018) 1080p Ukr/Eng | Sub Eng

Таллі / Tully (2018) 1080p Ukr/Eng | Sub Eng


Жанр: детектив, драма, комедія
Країна: США





Кінокомпанія: Focus Features, Bron Studios
Режисер: Джейсон Райтман
Актори: Шарліз Терон, Маккензі Девіс, Рон Лівінгстон, Марк Дюпліс, Ілейн Тан

Сюжет:
У центрі сюжету фільма «Таллі» опиняється Марло (Шарліз Терон) – багатодітна мати середнього віку. Вирішивши допомогти своїй дружині з доглядом за дітьми, її чоловік Дрю (Рон Лівінгстон) наймає няню на ім'я Таллі (Маккензі Девіс) в надії, що та зможе хоч якось розвантажити її. На подив Дрю, між Марло і Таллі зав'язуються якісь дивні стосунки.


Тривалість: 01:35:36
Якість: 1080p
Відео:
кодек:
розмір кадру: 1920x1038
бітрейт: 12,4 Мб/с

Аудіо # 1:
мова: українська
переклад: багатоголосий закадровий
кодек: 2.0
бітрейт: 192 кб/с

Аудіо # 2:
мова: англійська
переклад: оригінал
кодек: 5.1
бітрейт: 1510 кб/с

Субтитри:
мова: англійська
тип: програмні (м'які)
формат: *.srt
Info
Код:
General
Complete name                            : Tully (2018) 1080p [UKR_ENG] [Hurtom].
Format                                   :
Format version                           : Version 4
File size                                : 9.45 GiB
Duration                                 : 1 h 35 min
Overall bit rate                         : 14.1 Mb/s
Movie name                               : Tully (2018) 1080p [UKR_ENG] [Hurtom]
Encoded date                             : UTC 2019-04-04 12:06:16
Writing application                      : v30.1.0 ('Forever And More') 64-bit
Writing library                          : libebml v1.3.6 + v1.4.9

Video
ID                                       : 1
Format                                   : AVC
Format/Info                              : Advanced Video Codec
Format profile                           : [email protected]
Format settings                          : CABAC / 4 Ref Frames
Format settings, CABAC                   : Yes
Format settings, RefFrames               : 4 frames
Codec ID                                 : V_MPEG4/ISO/AVC
Duration                                 : 1 h 35 min
Bit rate                                 : 12.4 Mb/s
Width                                    : 1 920 pixels
Height                                   : 1 038 pixels
Display aspect ratio                     : 1.85:1
Frame rate mode                          : Constant
Frame rate                               : 23.976 (24000/1001) FPS
Color space                              : YUV
Chroma subsampling                       : 4:2:0
Bit depth                                : 8 bits
Scan type                                : Progressive
Bits/(Pixel*Frame)                       : 0.260
Stream size                              : 8.31 GiB (88%)
Writing library                          : core 155 r2867+74 66b5600 t_mod_Custom_2 [[email protected] X86_64]
Encoding settings                        : cabac=1 / ref=4 / deblock=1:-3:-3 / analyse=0x3:0x113 / me=umh / subme=10 / psy=1 / fade_compensate=0.00 / psy_rd=0.90:0.10 / mixed_ref=1 / me_range=48 / chroma_me=1 / trellis=2 / 8x8dct=1 / cqm=0 / deadzone=21,11 / fast_pskip=0 / chroma_qp_offset=-2 / threads=18 / lookahead_threads=3 / sliced_threads=0 / nr=0 / decimate=1 / interlaced=0 / bluray_compat=0 / constrained_intra=0 / fgo=0 / bframes=8 / b_pyramid=2 / b_adapt=2 / b_bias=0 / direct=3 / weightb=1 / open_gop=0 / weightp=2 / keyint=250 / keyint_min=23 / scenecut=40 / intra_refresh=0 / rc_lookahead=40 / rc=crf / mbtree=0 / crf=19.0000 / qcomp=0.70 / qpmin=0:0:0 / qpmax=69:69:69 / qpstep=4 / vbv_maxrate=35000 / vbv_bufsize=35000 / crf_max=0.0 / nal_hrd=none / filler=0 / ip_ratio=1.40 / pb_ratio=1.30 / aq=3:0.90 / aq-sensitivity=10.00 / aq-factor=1.00:1.00:1.00 / aq2=0 / aq3=2:[0.50:0.50]:[0.50:0.50]:[0.50:0.50]:[0.50:0.50] / aq3-sensitivity=10.00 / aq3-factor=[1.00:1.00]:[1.00:1.00]:[1.00:1.00] / aq3-boundary=192:64:24
Language                                 : English
Default                                  : Yes
Forced                                   : No
Color range                              : Limited
Matrix coefficients                      : BT.709

Audio #1
ID                                       : 2
Format                                   : AC-3
Format/Info                              : Audio Coding 3
Commercial name                          : Dolby Digital
Codec ID                                 : A_AC3
Duration                                 : 1 h 35 min
Bit rate mode                            : Constant
Bit rate                                 : 192 kb/s
Channel(s)                               : 2 channels
Channel layout                           : L R
Sampling rate                            : 48.0 kHz
Frame rate                               : 31.250 FPS (1536 SPF)
Bit depth                                : 16 bits
Compression mode                         : Lossy
Stream size                              : 131 MiB (1%)
Title                                    : , 2 ch, 192 Кбт/c
Language                                 : Ukrainian
Service kind                             : Complete Main
Default                                  : Yes
Forced                                   : No

Audio #2
ID                                       : 3
Format                                   :
Format/Info                              : Digital Theater Systems
Codec ID                                 : A_DTS
Duration                                 : 1 h 35 min
Bit rate mode                            : Constant
Bit rate                                 : 1 509 kb/s
Channel(s)                               : 6 channels
Channel layout                           : C L R Ls Rs LFE
Sampling rate                            : 48.0 kHz
Frame rate                               : 93.750 FPS (512 SPF)
Bit depth                                : 24 bits
Compression mode                         : Lossy
Stream size                              : 1.01 GiB (11%)
Title                                    : , 6 ch, 1510 Кбт/c
Language                                 : English
Default                                  : No
Forced                                   : No

Text
ID                                       : 4
Format                                   : UTF-8
Codec ID                                 : S_TEXT/UTF8
Codec ID/Info                            : UTF-8 Plain Text
Duration                                 : 1 h 33 min
Bit rate                                 : 69 b/s
Count of elements                        : 1630
Stream size                              : 47.3 KiB (0%)
Title                                    : Full
Language                                 : English
Default                                  : No
Forced                                   : No
Скріншоти







Підтримати купівлю інших фільмів можна тут.

Подяка пану AngryBirdsUA за доріжку.

Джерело:
Особиста оцінка: 0 - не дивився


 Трекер:    Зареєстрований   

Завантажити / скачати фільм українською



відео для новачків



 Зареєстрований:   2019-04-04 15:16
 Розмір:   9.45 GB 
 Оцінка фільму:   8.8/10 (Голосів: 11)
   
Інші релізи
   Таллі / Tully (2018) Remux 1080p Ukr/Eng | Sub Eng antik_2008  2 / 0   23.83 GB   2019-04-04 17:41 
   Таллі / Tully (2018) Ukr/Eng antik_2008  28 / 0   1.77 GB   2019-04-04 15:00 
   Таллі / Tully (2018) AVC Ukr/Eng | Sub Eng 11FrYkT  14 / 0   2.01 GB   2019-04-03 16:50 
   Таллі / Tully (2018) 720p Ukr/Eng | Sub Eng 11FrYkT  7 / 0   4.06 GB   2019-04-03 15:47 
vovang6 
Поважний учасник


З нами з: 27.08.12
Востаннє: 16.10.19
Повідомлень: 203

2019-04-06 08:49  
Цікаві історія, сенс та посил зрозумілий. Загалом дуже сподобався, Шарліз на висоті) 8/10.
vitalyyt 
Новенький


З нами з: 29.10.13
Востаннє: 16.10.19
Повідомлень: 4

2019-05-02 21:00  
Спокійний, правдивий фільм про сімейне життя, а головне - нічого зайвого.
Ваш часовий пояс: GMT + 2 Години

Нова тема   Відповісти