Останній Рубіж (Сезон 1) / Final space (Season 1) (2018) 720p Ukr/Eng | Sub Eng

Нові коментарі

Нова тема   Відповісти
Автор Повідомлення
Anonymous 







2019-04-03 20:18  
Останній Рубіж (Сезон 1) / Final space (Season 1) (2018) 720p Ukr/Eng | Sub Eng



Жанр: комедія, пригоди, фантастика
Країна: США



Кінокомпанія: Conaco, Jam Filled Entertainment, ShadowMachine
Режисер: Майк Робертс
Актори: Фред Арміс, Том Кенні, Олен Роджерс, Тіка Самптер, Девід Теннант, Коуту Гелловей, Стівен Ян, Джон Ді Маджіо, Конан О’Брайен, Джина Торрес

Сюжет:
Ґері Ґудспід – невдаха, який потрапив на тюремний космічний корабель за випадкове знищення майже сотні одиниць військової техніки і одного поганенького ресторану. Перебуваючи в ув’язненні, він записує відео послання для дівчини, яку бачив лише раз в житті, лагодить супутники і лається з підлим штучним інтелектом, намагаючись випросити собі печиво.
В один із сотні однакових днів на Ґері в космосі натикається зелена кулька з милою пикою. З неї і починається пригода, в якій знайшлося місце і древньому космічному злу, і карликовому антагоністові з армією тупих солдат, і небезпеки вселенського масштабу.


Тривалість: 1 серія: ~ 22 хв. (цілком серій: 10 з 10)
Перелік серій
Chapter 1 - 10.
Якість: 720p
Відео:
кодек:
розмір кадру: 1280 х 720
бітрейт: ~ 7 500 кб/с

Аудіо # 1:
мова: українська
переклад: двоголосий закадровий | Dzuski
кодек: 2.0
бітрейт: 192 кб/с
Інформація про озвучення:
Переклад: Aspid
Ролі озвучували: Listik & Trina_D
Аудіо # 2:
мова: англійська
переклад: оригінал
кодек: E- 5.1
бітрейт: 640 кб/с

Субтитри:
мова: англійська
тип: програмні (м'які)
формат: *.srt
Info
Format :
Format version : Version 4
File size : 1.27 GiB
Duration : 21 min 18 s
Overall bit rate : 8 510 kb/s
Encoded date : UTC 2019-03-31 15:15:31
Writing application : v27.0.0 ('Metropolis') 64-bit
Writing library : libebml v1.3.6 + v1.4.9

Video
ID : 1
Format : AVC
Format/Info : Advanced Video Codec
Format profile : [email protected]
Format settings : CABAC / 9 Ref Frames
Format settings, CABAC : Yes
Format settings, ReFrames : 9 frames
Codec ID : V_MPEG4/ISO/AVC
Duration : 21 min 18 s
Bit rate : 7 675 kb/s
Width : 1 280 pixels
Height : 720 pixels
Display aspect ratio : 16:9
Frame rate mode : Constant
Frame rate : 23.976 (24000/1001) FPS
Color space : YUV
Chroma subsampling : 4:2:0
Bit depth : 8 bits
Scan type : Progressive
Bits/(Pixel*Frame) : 0.347
Stream size : 1.14 GiB (90%)
Writing library : core 148 r2744 b97ae06
Encoding settings : cabac=1 / ref=9 / deblock=1:-3:-3 / analyse=0x3:0x133 / me=umh / subme=10 / psy=1 / psy_rd=1.00:0.00 / mixed_ref=1 / me_range=48 / chroma_me=1 / trellis=2 / 8x8dct=1 / cqm=0 / deadzone=21,11 / fast_pskip=1 / chroma_qp_offset=-2 / threads=12 / lookahead_threads=2 / sliced_threads=0 / nr=0 / decimate=0 / interlaced=0 / bluray_compat=0 / constrained_intra=0 / bframes=8 / b_pyramid=2 / b_adapt=2 / b_bias=0 / direct=3 / weightb=1 / open_gop=0 / weightp=2 / keyint=240 / keyint_min=23 / scenecut=40 / intra_refresh=0 / rc=crf / mbtree=0 / crf=17.0 / qcomp=0.60 / qpmin=0 / qpmax=69 / qpstep=4 / ip_ratio=1.40 / pb_ratio=1.30 / aq=3:0.70
Language : English
Default : Yes
Forced : No

Audio #1
ID : 2
Format : AC-3
Format/Info : Audio Coding 3
Commercial name : Dolby Digital
Codec ID : A_AC3
Duration : 21 min 18 s
Bit rate mode : Constant
Bit rate : 192 kb/s
Channel(s) : 2 channels
Channel layout : L R
Sampling rate : 48.0 kHz
Frame rate : 31.250 FPS (1536 SPF)
Bit depth : 16 bits
Compression mode : Lossy
Stream size : 29.3 MiB (2%)
Title : DVO - Dzuski
Language : Ukrainian
Service kind : Complete Main
Default : Yes
Forced : No

Audio #2
ID : 3
Format : E-AC-3
Format/Info : Enhanced AC-3
Commercial name : Dolby Digital Plus
Codec ID : A_EAC3
Duration : 21 min 18 s
Bit rate mode : Constant
Bit rate : 640 kb/s
Channel(s) : 6 channels
Channel layout : L R C LFE Ls Rs
Sampling rate : 48.0 kHz
Frame rate : 31.250 FPS (1536 SPF)
Compression mode : Lossy
Stream size : 97.5 MiB (8%)
Language : English
Service kind : Complete Main
Default : No
Forced : No

Text
ID : 4
Format : UTF-8
Codec ID : S_TEXT/UTF8
Codec ID/Info : UTF-8 Plain Text
Duration : 21 min 9 s
Bit rate : 84 b/s
Count of elements : 475
Stream size : 13.2 KiB (0%)
Language : English
Default : No
Forced : No
Скріншоти





Джерело: & Dzuski
Особиста оцінка: 0 - не дивився


Авторський реліз (завантажувати можна без реєстрації)
 Трекер:    Зареєстрований   

Завантажити / скачати мультфільм українською



відео для новачків



 Зареєстрований:   2019-04-03 20:18
 Розмір:   8.86 GB 
 Оцінка мультсеріалу:   9.7/10 (Голосів: 26)
   
ika1963 
Відео Гуртом - дизайнер
Відео Гуртом - дизайнер


З нами з: 13.05.10
Востаннє: 08.04.21
Повідомлень: 305

2019-04-03 23:15  
Дивився реліз цього серіалу від "Кубик в Кубі" - шедеврально!
xlenz 
Новенький


З нами з: 20.07.14
Востаннє: 20.08.20
Повідомлень: 19

2019-04-14 15:28  
Мультсеріал неймовірно чудовий, без всяких сумнівів 10/10. Дуже захоплюючий, класний сюжет.
Переклад сподобався!
З малими дітьми дивитись не варто, мабуть (до 5 класу?). Мати відсутні, проте є сцени, в яких присутня кров.

Дякую за реліз, з нетерпінням чекаю наступного сезону Happy

Dark Invader 
Модератор відео


З нами з: 06.01.11
Востаннє: 11.04.21
Повідомлень: 3175

2019-07-02 15:27  
Dzuski почали озвучення 2-го сезону, який не давно стартував в США.
Anonymous 







2019-07-25 10:53  
Dark Invader написано:
почали озвучення 2-го сезону

зроблю реліз після виходу усіх серій.

andrm 
Свій


З нами з: 17.03.09
Востаннє: 09.04.21
Повідомлень: 79

2019-09-12 18:25  
Anonymous
Anonymous написано:
зроблю реліз після виходу усіх серій.


Вельми дякую!

Av_m 
Частий відвідувач


З нами з: 25.03.17
Востаннє: 09.04.21
Повідомлень: 38

2019-09-23 19:42  
Цей мульт нестандартний та дуже бомбезний! Один нюанс, дивився с десятирічною дитиною. Молодше не треба, бо іноді є криваві сцени насилля.
З нетерпінням чекаємо на озвучення другого сезону! Принципово не завантажую з росіським перекладом.

Jack Lviv 
Новенький


З нами з: 12.01.20
Востаннє: 24.03.21
Повідомлень: 2

2020-01-17 18:30  
Av_m
Взагалі-то це мульт 16+, але хто звертає на таке увагу?

Додано через 1 хвилину 2 секунди:

xlenz
Взагалі-то це 16+, але хто звертає на таке увагу?

chebrec' 
Новенький


З нами з: 26.08.13
Востаннє: 24.03.21
Повідомлень: 12

2020-01-26 22:46  
Мульт прикольний. Помітив ідеї із вартових галактики і ще кількох фільмів. Але найвеселіше - це переклад. Дуже кльовий!
s-bevz 
Новенький


З нами з: 01.04.11
Востаннє: 08.04.21
Повідомлень: 10

2020-06-13 22:41  
ааа... їду в командіровку на декілька місяців у чехію... А роздачі нема. =(
Ваш часовий пояс: GMT + 2 Години

Нова тема   Відповісти