Криваві жнива / Haute Tension (High Tension) (2003) 1080p Ukr/Fre | sub Eng

Нові коментарі

Нова тема   Відповісти
Автор Повідомлення
Anonymous 







2019-04-02 21:56  
Криваві жнива / Haute Tension (High Tension) (2003) 1080p Ukr/Fre | sub Eng

Криваві жнива / Haute Tension (High Tension) (2003) 1080p Ukr/Fre | sub Eng


Жанр: жахи, містика, трилер
Країна: Франція



Кінокомпанія: Lions Gate Entertainmen
Режисер: Олександр Ажа
Актори: Сесіль Де Франс, Майвенн Ле Беско, Філіп Наон, Франк Халфун

Сюжет:
Будинок на відшибі. Дві кращі подруги і кровожерна вбивця. Героїням фільму за одну ніч доведеться пережити найстрашніший кошмар, який тільки вони могли собі уявити. Вони зіткнуться зі страхом невідомого, зі страхом темноти і тваринним страхом невідворотності смерті.


Тривалість: 01:30:45
Якість:
Відео:
кодек:
розмір кадру: 1920 х 824
бітрейт: 11 500 кб/с

Аудіо # 1:
мова: українська
переклад: двоголосий закадровий
кодек: 2.0
бітрейт: 192 кб/с

Аудіо # 2:
мова: французька
переклад: оригінал
кодек: 5.1
бітрейт: 2 159 кб/с

Субтитри:
мова: англійська
тип: програмні (м'які)
формат: *.srt
Info
General
Unique ID : 85577095313338648478478819932309078911 (0x40618C8E00444C0BCCFFC47D1460C37F)
Complete name : G:\HD Films\Haute Tension (2003) 1080p [ukr.fre] Hurtom.
Format :
Format version : Version 4
File size : 8.64 GiB
Duration : 1 h 30 min
Overall bit rate mode : Variable
Overall bit rate : 13.6 Mb/s
Encoded date : UTC 2019-04-02 18:44:34
Writing application : v32.0.0 ('Astral Progressions') 64-bit
Writing library : libebml v1.3.7 + v1.5.0

Video
ID : 1
Format : AVC
Format/Info : Advanced Video Codec
Format profile : [email protected]
Format settings : CABAC / 5 Ref Frames
Format settings, CABAC : Yes
Format settings, ReFrames : 5 frames
Codec ID : V_MPEG4/ISO/AVC
Duration : 1 h 30 min
Bit rate : 11.5 Mb/s
Width : 1 920 pixels
Height : 824 pixels
Display aspect ratio : 2.35:1
Frame rate mode : Constant
Frame rate : 23.976 (24000/1001) FPS
Color space : YUV
Chroma subsampling : 4:2:0
Bit depth : 8 bits
Scan type : Progressive
Bits/(Pixel*Frame) : 0.303
Stream size : 7.15 GiB (83%)
Writing library : core 79 r1342kMod e8501ef
Encoding settings : cabac=1 / ref=5 / deblock=1:-3:-3 / analyse=0x3:0x133 / me=umh / subme=10 / psy=1 / psy_rd=1.0:0.1 / mixed_ref=1 / me_range=32 / chroma_me=1 / trellis=2 / 8x8dct=1 / cqm=0 / deadzone=21,11 / chroma_qp_offset=-3 / threads=6 / nr=0 / decimate=1 / mbaff=0 / constrained_intra=0 / bframes=10 / b_pyramid=0 / b_adapt=2 / b_bias=0 / direct=1 / wpredb=1 / wpredp=2 / keyint=250 / keyint_min=25 / scenecut=40 / rc_lookahead=50 / rc=abr / mbtree=1 / bitrate=11500 / ratetol=1.0 / qcomp=0.60 / qpmin=10 / qpmax=51 / qpstep=4 / ip_ratio=1.40 / aq=1:1.00
Language : French
Default : Yes
Forced : No

Audio #1
ID : 2
Format : AC-3
Format/Info : Audio Coding 3
Commercial name : Dolby Digital
Codec ID : A_AC3
Duration : 1 h 30 min
Bit rate mode : Constant
Bit rate : 192 kb/s
Channel(s) : 2 channels
Channel layout : L R
Sampling rate : 48.0 kHz
Frame rate : 31.250 FPS (1536 SPF)
Bit depth : 16 bits
Compression mode : Lossy
Stream size : 125 MiB (1%)
Title : TBi channel (DVO)
Language : Ukrainian
Service kind : Complete Main
Default : Yes
Forced : No

Audio #2
ID : 3
Format : XLL
Format/Info : Digital Theater Systems
Commercial name : -HD Master Audio
Codec ID : A_DTS
Duration : 1 h 30 min
Bit rate mode : Variable
Bit rate : 2 159 kb/s
Channel(s) : 6 channels
Channel layout : C L R Ls Rs LFE
Sampling rate : 48.0 kHz
Frame rate : 93.750 FPS (512 SPF)
Bit depth : 16 bits
Compression mode : Lossless
Stream size : 1.37 GiB (16%)
Title : Original
Language : French
Default : No
Forced : No

Text
ID : 4
Format : UTF-8
Codec ID : S_TEXT/UTF8
Codec ID/Info : UTF-8 Plain Text
Duration : 1 h 26 min
Bit rate : 11 b/s
Count of elements : 272
Stream size : 7.16 KiB (0%)
Language : English
Default : No
Forced : No

[/center]
Скріншоти









Джерело: &


Срібний реліз (на рейтинг впливає 50% завантаженого)
 Трекер:    Зареєстрований   

Завантажити / скачати фільм українською



відео для новачків



 Зареєстрований:   2019-04-02 21:56
 Розмір:   8.64 GB 
 Оцінка фільму:   10/10 (Голосів: 1)
   
+380954897458 
Поважний учасник


З нами з: 02.06.17
Востаннє: 20.04.19
Повідомлень: 220

2019-04-02 22:29  
Сесіль Де Франс така ляля. У Клінта Іствуда в "Потойбічному" класно зіграла. Та й Ажа в Голівуді зняв дуже непоганий рімейк Крейвенівського слешера "У пагорбів є очі".
Ваш часовий пояс: GMT + 2 Години

Нова тема   Відповісти