Фантастичні звірі: Злочини Ґріндельвальда / Fantastic Beasts: The Crimes of Grindelwald (2018) UHD Remux 2160p 4K HDR H.265 Ukr/Eng | Sub Eng

Нові коментарі

Нова тема   Відповісти
Автор Повідомлення
Argentum 
Поважний учасник


З нами з: 25.09.11
Востаннє: 23.04.19
Повідомлень: 192

2019-04-02 12:45  
Фантастичні звірі: Злочини Ґріндельвальда / Fantastic Beasts: The Crimes of Grindelwald (2018) UHD Remux 2160p 4K HDR H.265 Ukr/Eng | Sub Eng

Фантастичні звірі: Злочини Ґріндельвальда / Fantastic Beasts: The Crimes of Grindelwald (2018) UHD Remux 2160p 4K HDR H.265 Ukr/Eng | Sub Eng
Альтернативний постер:



Жанр: фентезі, пригодницький
Країна: США, Велика Британія



Кінокомпанія: Warner Bros, Heyday Films
Режисер: Девід Єйтс
Актори: Едді Редмейн, Кетрін Вотерстон, Ден Фоглер, Елісон Судол, Джуд Лоу, Зої Кравіц, Каллум Тернер, Клавдія Кім, Езра Міллер,Джонні Депп та інші.

Сюжет:
Ґріндельвальд тікає з-під варти і збирає тих, хто вважає чарівників вищими за всіх не магічних істот. Єдиний, хто може зупинити його, це Албус Дамблдор. Раніше вони були друзями, але тепер опинились по різні боки барикад. Але Дамблдору не впоратися самотужки, тож він вирішує заручитися підтримкою свого колишнього учня Ньюта Скамандера. Захоплююча пригода знову об'єднає Ньюта з Тіною, Квіні з Якобом та випробує їхню вірність одне одному.


Тривалість: 02:13:50
Якість: 4K UltraHD Remux 2160p

Відео:
кодек: H.265 (HEVC)
розмір кадру: 3840 х 2160
бітрейт: 50,5 Мб/с
бітова глибина: 10 біт
кольоровий простір: BT.2020 (HDR)

Увага! Перед завантаженням переконайтесь, що ваш пристрій відтворення (та/або ПЗ) підтримує H.265 (HEVC)

Аудіо # 1:
мова: українська
переклад: професійний дубльований | студія Postmodern
кодек: 2.0
бітрейт: 192 кб/с
Інформація про дубляж
Ролі дублювали:

Ньют — Олександр Погребняк,
Якоб — В'ячеслав Дудко,
Тіна — Юлія Перенчук,
Квіні— Наталія Денисенко,
Дамблдор — Іван Розін,
Ґріндельвальд — Андрій Твердак,
Кама — Дмитро Гаврилов,
Тесей — Олександр Ромашко,
Треверс — Олег Лепенець,
Креденцій — Андрій Соболєв,
Фламель — Андрій Альохін,
Наджіні — Ганна Кузіна,
Скендер — Сергій Кияшко,
Банті — Інна Бєлікова,
Грімсон — Михайло Кришталь,
Ірма — Валентина Сова,
Роз’є — Катерина Брайковська,
Гузман — Євген Сінчуков,
Серафіна — Наталія Ярошенко,
Мінерва Макґонеґел — Світлана Шекера,
Портальний — Володимир Терещук,
Євлалія — Людмила Петреченко

Керівник дубляжу: Ірина Туловська
Переклад: Олег Колесніков
Режисер дубляжу: Анна Пащенко
Звукорежисер: Олександр Мостовенко
Аудіо # 2:
мова: англійська
переклад: оригінал
кодек: 5.1
бітрейт: 1509 кб/с

Субтитри 1: (форсовані)
мова: українська
тип: програмні (м'які)
формат: *.srt

Субтитри 2-3: (повні, SDH)
мова: англійська
тип: програмні (м'які)
формат: *.srt
Info
General
Unique ID : 163775632029481408501119848541629961998 (0x7B360A155FEDB0C5293618B44567D70E)
Complete name : Fantastic Beasts/Fantastic Beasts The Crimes of Grindelwald (2018) [Ukr, Eng] Remux HDR 2160p [Hurtom].
Format :
Format version : Version 4
File size : 48.8 GiB
Duration : 2 h 13 min
Overall bit rate : 52.2 Mb/s
Movie name : Fantastic Beasts The Crimes of Grindelwald (2018) [Ukr, Eng] Remux HDR 2160p
Encoded date : UTC 2019-03-31 12:18:39
Writing application : v32.0.0 ('Astral Progressions') 64-bit
Writing library : libebml v1.3.7 + v1.5.0
Cover : Yes
Attachments : cover.jpg

Video
ID : 1
Format : HEVC
Format/Info : High Efficiency Video Coding
Commercial name : HDR10
Format profile : Main [email protected]@High
Codec ID : V_MPEGH/ISO/HEVC
Duration : 2 h 13 min
Bit rate : 50.5 Mb/s
Width : 3 840 pixels
Height : 2 160 pixels
Display aspect ratio : 16:9
Frame rate mode : Constant
Frame rate : 23.976 (24000/1001) FPS
Color space : YUV
Chroma subsampling : 4:2:0 (Type 2)
Bit depth : 10 bits
Bits/(Pixel*Frame) : 0.254
Stream size : 47.2 GiB (97%)
Title : HEVC 3840*2160 HDR10 @ 50.5 Mbps
Language : Multiple languages
Default : Yes
Forced : Yes
Color range : Limited
Color primaries : BT.2020
Transfer characteristics : PQ
Matrix coefficients : BT.2020 non-constant
Mastering display color primaries : Display P3
Mastering display luminance : min: 0.0050 cd/m2, max: 4000 cd/m2
Maximum Content Light Level : 3241 cd/m2
Maximum Frame-Average Light Level : 902 cd/m2

Audio #1
ID : 2
Format : AC-3
Format/Info : Audio Coding 3
Commercial name : Dolby Digital
Codec ID : A_AC3
Duration : 2 h 13 min
Bit rate mode : Constant
Bit rate : 192 kb/s
Channel(s) : 2 channels
Channel layout : L R
Sampling rate : 48.0 kHz
Frame rate : 31.250 FPS (1536 SPF)
Bit depth : 16 bits
Compression mode : Lossy
Delay relative to video : -9 ms
Stream size : 184 MiB (0%)
Title : 2.0 @ 192 Kbps
Language : Ukrainian
Service kind : Complete Main
Default : Yes
Forced : Yes

Audio #2
ID : 3
Format :
Format/Info : Digital Theater Systems
Codec ID : A_DTS
Duration : 2 h 13 min
Bit rate mode : Constant
Bit rate : 1 509 kb/s
Channel(s) : 6 channels
Channel layout : C L R Ls Rs LFE
Sampling rate : 48.0 kHz
Frame rate : 93.750 FPS (512 SPF)
Bit depth : 24 bits
Compression mode : Lossy
Delay relative to video : -9 ms
Stream size : 1.41 GiB (3%)
Title : 5.1 @ 1509 Kbps
Language : English
Default : No
Forced : No

Text #1
ID : 4
Format : UTF-8
Codec ID : S_TEXT/UTF8
Codec ID/Info : UTF-8 Plain Text
Duration : 2 h 13 min
Bit rate : 1 b/s
Count of elements : 28
Stream size : 1.19 KiB (0%)
Title : Forced
Language : Ukrainian
Default : Yes
Forced : Yes

Text #2
ID : 5
Format : UTF-8
Codec ID : S_TEXT/UTF8
Codec ID/Info : UTF-8 Plain Text
Duration : 2 h 3 min
Bit rate : 41 b/s
Count of elements : 1265
Stream size : 37.1 KiB (0%)
Title : Full
Language : English
Default : No
Forced : No

Text #3
ID : 6
Format : UTF-8
Codec ID : S_TEXT/UTF8
Codec ID/Info : UTF-8 Plain Text
Duration : 2 h 13 min
Bit rate : 43 b/s
Count of elements : 1506
Stream size : 42.3 KiB (0%)
Title : Full (SDH)
Language : English
Default : No
Forced : No

Menu
00:00:00.000 : :Chapter 1
00:07:15.309 : :Chapter 2
00:21:39.381 : :Chapter 3
00:32:56.849 : :Chapter 4
00:41:41.123 : :Chapter 5
00:50:26.189 : :Chapter 6
00:58:21.539 : :Chapter 7
01:12:02.860 : :Chapter 8
01:20:23.610 : :Chapter 9
01:34:50.059 : :Chapter 10
01:43:08.557 : :Chapter 11
01:51:42.237 : :Chapter 12
02:00:31.641 : :Chapter 13
Скріншоти







Джерело:
Особиста оцінка: 8 - мені сподобалося


Золотий реліз (завантажене не впливає на рейтинг)
 Трекер:    Зареєстрований   

Завантажити / скачати фільм українською



відео для новачків



 Зареєстрований:   2019-04-02 12:45
 Розмір:   48.79 GB 
 Оцінка фільму:   8.9/10 (Голосів: 13)
   
Ваш часовий пояс: GMT + 2 Години

Нова тема   Відповісти