Фантастичні звірі: Злочини Ґріндельвальда / Fantastic Beasts: The Crimes of Grindelwald (2018) UHD Remux 2160p 4K HDR H.265 Ukr/Eng | Sub Eng

Нові коментарі

Нова тема   Відповісти
Автор Повідомлення
Argentum 
VIP


З нами з: 25.09.11
Востаннє: 06.12.20
Повідомлень: 263

2019-04-02 11:45  
Фантастичні звірі: Злочини Ґріндельвальда / Fantastic Beasts: The Crimes of Grindelwald (2018) UHD Remux 2160p 4K HDR H.265 Ukr/Eng | Sub Eng

Фантастичні звірі: Злочини Ґріндельвальда / Fantastic Beasts: The Crimes of Grindelwald (2018) UHD Remux 2160p 4K HDR H.265 Ukr/Eng | Sub Eng
Альтернативний постер:



Жанр: фентезі, пригодницький
Країна: США, Велика Британія



Кінокомпанія: Warner Bros, Heyday Films
Режисер: Девід Єйтс
Актори: Едді Редмейн, Кетрін Вотерстон, Ден Фоглер, Елісон Судол, Джуд Лоу, Зої Кравіц, Каллум Тернер, Клавдія Кім, Езра Міллер,Джонні Депп та інші.

Сюжет:
Ґріндельвальд тікає з-під варти і збирає тих, хто вважає чарівників вищими за всіх не магічних істот. Єдиний, хто може зупинити його, це Албус Дамблдор. Раніше вони були друзями, але тепер опинились по різні боки барикад. Але Дамблдору не впоратися самотужки, тож він вирішує заручитися підтримкою свого колишнього учня Ньюта Скамандера. Захоплююча пригода знову об'єднає Ньюта з Тіною, Квіні з Якобом та випробує їхню вірність одне одному.


Тривалість: 02:13:50
Якість: 4K UltraHD Remux 2160p

Відео:
кодек: H.265 (HEVC)
розмір кадру: 3840 х 2160
бітрейт: 50,5 Мб/с
бітова глибина: 10 біт
кольоровий простір: BT.2020 (HDR)

Увага! Перед завантаженням переконайтесь, що ваш пристрій відтворення (та/або ПЗ) підтримує H.265 (HEVC)

Аудіо # 1:
мова: українська
переклад: професійний дубльований | студія Postmodern
кодек: 5.1
бітрейт: 384 кб/с
Інформація про дубляж
Ролі дублювали:

Ньют — Олександр Погребняк,
Якоб — В'ячеслав Дудко,
Тіна — Юлія Перенчук,
Квіні— Наталія Денисенко,
Дамблдор — Іван Розін,
Ґріндельвальд — Андрій Твердак,
Кама — Дмитро Гаврилов,
Тесей — Олександр Ромашко,
Треверс — Олег Лепенець,
Креденцій — Андрій Соболєв,
Фламель — Андрій Альохін,
Наджіні — Ганна Кузіна,
Скендер — Сергій Кияшко,
Банті — Інна Бєлікова,
Грімсон — Михайло Кришталь,
Ірма — Валентина Сова,
Роз’є — Катерина Брайковська,
Гузман — Євген Сінчуков,
Серафіна — Наталія Ярошенко,
Мінерва Макґонеґел — Світлана Шекера,
Портальний — Володимир Терещук,
Євлалія — Людмила Петреченко

Керівник дубляжу: Ірина Туловська
Переклад: Олег Колесніков
Режисер дубляжу: Анна Пащенко
Звукорежисер: Олександр Мостовенко
Аудіо # 2:
мова: англійська
переклад: оригінал
кодек: 5.1
бітрейт: 1509 кб/с

Аудіо # 3:
мова: англійська
переклад: оригінал
кодек: 5.1
бітрейт: 640 кб/с

Субтитри 1: (форсовані)
мова: українська
тип: програмні (м'які)
формат: *.srt

Субтитри 2-3: (повні, SDH)
мова: англійська
тип: програмні (м'які)
формат: *.srt
Info
General
Unique ID : 195538003445915493730319128641199718550 (0x931B3FE6748C6A160A820D5078A4C096)
Complete name : Fantastic Beasts. The Crimes of Grindelwald (2018) [Ukr, Eng] Remux HDR 2160p.
Format :
Format version : Version 4
File size : 49.6 GiB
Duration : 2 h 13 min
Overall bit rate : 53.0 Mb/s
Movie name : Fantastic Beasts: The Crimes of Grindelwald (2018)
Encoded date : UTC 2019-12-19 09:13:34
Writing application : v41.0.0 ('Smarra') 64-bit
Writing library : libebml v1.3.9 + v1.5.2
Cover : Yes
Attachments : cover.jpg

Video
ID : 1
Format : HEVC
Format/Info : High Efficiency Video Coding
Format profile : Main [email protected]@High
HDR format : SMPTE ST 2086, HDR10 compatible
Codec ID : V_MPEGH/ISO/HEVC
Duration : 2 h 13 min
Bit rate : 50.5 Mb/s
Width : 3 840 pixels
Height : 2 160 pixels
Display aspect ratio : 16:9
Frame rate mode : Constant
Frame rate : 23.976 (24000/1001) FPS
Color space : YUV
Chroma subsampling : 4:2:0 (Type 2)
Bit depth : 10 bits
Bits/(Pixel*Frame) : 0.254
Stream size : 47.2 GiB (95%)
Title : HEVC 3840*2160 HDR10 @ 50.5 Mb/s
Language : Multiple languages
Default : Yes
Forced : Yes
Color range : Limited
Color primaries : BT.2020
Transfer characteristics : PQ
Matrix coefficients : BT.2020 non-constant
Mastering display color primaries : Display P3
Mastering display luminance : min: 0.0050 cd/m2, max: 4000 cd/m2
Maximum Content Light Level : 3241 cd/m2
Maximum Frame-Average Light Level : 902 cd/m2

Audio #1
ID : 2
Format : AC-3
Format/Info : Audio Coding 3
Commercial name : Dolby Digital
Codec ID : A_AC3
Duration : 2 h 13 min
Bit rate mode : Constant
Bit rate : 384 kb/s
Channel(s) : 6 channels
Channel layout : L R C LFE Ls Rs
Sampling rate : 48.0 kHz
Frame rate : 31.250 FPS (1536 SPF)
Compression mode : Lossy
Delay relative to video : -9 ms
Stream size : 368 MiB (1%)
Title : AC-3 5.1 @ 384 kb/s
Language : Ukrainian
Service kind : Complete Main
Default : Yes
Forced : Yes

Audio #2
ID : 3
Format :
Format/Info : Digital Theater Systems
Codec ID : A_DTS
Duration : 2 h 13 min
Bit rate mode : Constant
Bit rate : 1 509 kb/s
Channel(s) : 6 channels
Channel layout : C L R Ls Rs LFE
Sampling rate : 48.0 kHz
Frame rate : 93.750 FPS (512 SPF)
Bit depth : 24 bits
Compression mode : Lossy
Delay relative to video : -9 ms
Stream size : 1.41 GiB (3%)
Title : 5.1 @ 1 509 kb/s
Language : English
Default : No
Forced : No

Audio #3
ID : 4
Format : AC-3
Format/Info : Audio Coding 3
Commercial name : Dolby Digital
Codec ID : A_AC3
Duration : 2 h 13 min
Bit rate mode : Constant
Bit rate : 640 kb/s
Channel(s) : 6 channels
Channel layout : L R C LFE Ls Rs
Sampling rate : 48.0 kHz
Frame rate : 31.250 FPS (1536 SPF)
Compression mode : Lossy
Delay relative to video : -9 ms
Stream size : 613 MiB (1%)
Title : AC-3 5.1 @ 640 kb/s
Language : English
Service kind : Complete Main
Default : No
Forced : No

Text #1
ID : 5
Format : UTF-8
Codec ID : S_TEXT/UTF8
Codec ID/Info : UTF-8 Plain Text
Duration : 2 h 13 min
Bit rate : 1 b/s
Count of elements : 28
Stream size : 1.19 KiB (0%)
Title : Forced
Language : Ukrainian
Default : Yes
Forced : Yes

Text #2
ID : 6
Format : UTF-8
Codec ID : S_TEXT/UTF8
Codec ID/Info : UTF-8 Plain Text
Duration : 2 h 3 min
Bit rate : 41 b/s
Count of elements : 1265
Stream size : 37.1 KiB (0%)
Title : Full
Language : English
Default : No
Forced : No

Text #3
ID : 7
Format : UTF-8
Codec ID : S_TEXT/UTF8
Codec ID/Info : UTF-8 Plain Text
Duration : 2 h 13 min
Bit rate : 43 b/s
Count of elements : 1506
Stream size : 42.3 KiB (0%)
Title : SDH
Language : English
Default : No
Forced : No

Menu
00:00:00.000 : :Chapter 1
00:07:15.309 : :Chapter 2
00:21:39.381 : :Chapter 3
00:32:56.849 : :Chapter 4
00:41:41.123 : :Chapter 5
00:50:26.189 : :Chapter 6
00:58:21.539 : :Chapter 7
01:12:02.860 : :Chapter 8
01:20:23.610 : :Chapter 9
01:34:50.059 : :Chapter 10
01:43:08.557 : :Chapter 11
01:51:42.237 : :Chapter 12
02:00:31.641 : :Chapter 13
Скріншоти







Джерело:
Особиста оцінка: 8 - мені сподобалося


Золотий реліз (завантажене не впливає на рейтинг)
 Трекер:    Зареєстрований   

Завантажити / скачати фільм українською



відео для новачків



 Зареєстрований:   2019-12-19 12:04
 Розмір:   49.56 GB 
 Оцінка фільму:   8.3/10 (Голосів: 13)
   
Інші релізи
   Фантастичні звірі: Злочини Ґріндельвальда / Fantastic Beasts: The Crimes of Grindelwald (2018) DVD9 / R2 / Eng/Cz/Rus/Slov/Ukr | Sub Eng/Cz/Est/Latv/Lith/Port/Rus/Slov/Ukr Bochys  3 / 0   9.58 GB   2020-10-02 22:24 
   Фантастичні звірі: Злочини Ґріндельвальда / Fantastic Beasts: The Crimes of Grindelwald (2018) Ukr/Eng | Sub Eng igor911  21 / 0   2.18 GB   2019-07-14 11:29 
   Фантастичні звірі: Злочини Ґріндельвальда / Fantastic Beasts: The Crimes of Grindelwald (2018) Remux 1080p Ukr/Eng | Sub Eng staf777  4 / 0   24.35 GB   2019-07-07 13:38 
   Фантастичні звірі: Злочини Ґріндельвальда / Fantastic Beasts: The Crimes of Grindelwald (2018) 1080p Ukr/Eng | Sub Eng igor911  18 / 0   10.1 GB   2019-07-05 09:21 
   Фантастичні звірі: Злочини Ґріндельвальда / Fantastic Beasts: The Crimes of Grindelwald (2018) 720p Ukr/Eng | Sub Eng 11FrYkT  11 / 0   5.43 GB   2019-07-05 08:33 
   Фантастичні звірі: Злочини Ґріндельвальда / Fantastic Beasts: The Crimes of Grindelwald (2018) AVC Ukr/Eng | Sub Eng 11FrYkT  16 / 1   2.41 GB   2019-07-05 08:20 
   Фантастичні звірі: Злочини Ґріндельвальда / Fantastic Beasts: The Crimes of Grindelwald (2018) uafilm.tv  6 / 0   1.46 GB   2019-03-10 09:19 
VOLYMIR 
Свій


З нами з: 15.10.15
Востаннє: 16.11.20
Повідомлень: 56

2019-04-28 09:11  
А як розуміти те, о інших релізів вже не існує?
Judgment Day 
Свій


З нами з: 05.08.18
Востаннє: 06.12.20
Повідомлень: 145

2019-05-01 05:13  
Перший фільм більше вразив, але цей фільм також має багато позитивних якостей. Цікаво буде подивитись на продовження історії.
Приємно, що до перегляду фільму спрогнозував, що Квіні і Креденцій перейдуть на сторону Ґріндельвальда, якого зіграв шедевральний Депп.

Mrakobes0001 
Новенький


З нами з: 25.11.16
Востаннє: 24.08.20
Повідомлень: 10

2019-05-04 21:17  
помельче объём никто не встречал??
igor911 
Модератор відео


З нами з: 18.01.08
Востаннє: 06.12.20
Повідомлень: 15098

2019-05-04 22:06  
Mrakobes0001 прохання не порушувати правила:
Цитата:
2. Правила та обмеження форуму
Всім без винятку заборонено:
2.1 Спілкуватися іншою мовою, аніж літературною українською


по суті питання - як думаєш, для чого є спойлер "Інші релізи" під блоком завантаження?

Heavy_Metal 
Новенький


З нами з: 13.11.16
Востаннє: 25.09.20
Повідомлень: 2

2019-05-19 11:48  
Цитата:
по суті питання - як думаєш, для чого є спойлер "Інші релізи" під блоком завантаження?


Посилання під спойлером не працюють, інших релізів не існує. Як це розуміти?

igor911 
Модератор відео


З нами з: 18.01.08
Востаннє: 06.12.20
Повідомлень: 15098

2019-05-19 11:51  
Heavy_Metal написано:
Як це розуміти?

Мабуть була скарга правовласників, тому обмежили доступ.

SergeyRom 
Новенький


З нами з: 16.04.10
Востаннє: 14.07.20
Повідомлень: 7

2019-11-04 17:50  
А буде 1080p, з добрим бiтрейтом?
igor911 
Модератор відео


З нами з: 18.01.08
Востаннє: 06.12.20
Повідомлень: 15098

2019-11-04 18:43  
SergeyRom написано:
А буде 1080p, з добрим бiтрейтом?

Та є вже релізи https://toloka.to/t99055 https://toloka.to/t99400 , але через скарги правовласників доступ до них мають не всі, а лише активні користувачі.

Argentum 
VIP


З нами з: 25.09.11
Востаннє: 06.12.20
Повідомлень: 263

2019-12-19 12:11  
19.12.2019 Реліз оновлено! Замінено українську доріжку з 2.0 на 5.1 та додано доріжку ангійською 5.1.
Ваш часовий пояс: GMT + 2 Години

Нова тема   Відповісти