Термінове занурення / Crash Dive (1997) 720p Ukr/Eng

Нові коментарі

Нова тема   Відповісти
Автор Повідомлення
Anonymous 







2019-04-02 09:57  
Термінове занурення / Crash Dive (1997) 720p Ukr/Eng

Термінове занурення / Crash Dive (1997) 720p Ukr/Eng


Жанр: екшн, драма, трилер
Країна: США



Кінокомпанія: Royal Oaks Entertainment Inc., Cabin Fever Entertainment
Режисер: Ендрю Стівенс
Актори: Майкл Дудікофф, Фредерік Форрест, Рейнер Шене, Джей Аковоне, Клей Грінбуш, Кетрін Белл, Майкл Кавана, Сайрус Фармер, Тайм Вінтерс

Сюжет:
Екіпаж атомного підводного човна рятує жертв аварії корабля, але жертви виявляються терористами і захоплюють підводний човен. Тільки колишній морпіх може врятувати екіпаж, проникнувши на борт човна, що вже перебуває під водою.


Тривалість: 01:26:41
Якість: 720p
Відео:
кодек:
розмір кадру: 1280 х 720
бітрейт: 6473 кб/с

Аудіо # 1:
мова: українська
переклад: двоголосий закадровий
кодек: 2.0
бітрейт: 192 кб/с

Аудіо # 2:
мова: англійська
переклад: оригінал
кодек: 5.1
бітрейт: 448 кб/с
Info
General
Unique ID : 294657291608708529648416428642113913361 (0xDDACEE1C9D5B9F796B73146E893F8211)
Complete name : N:\tmp\release\Crash Dive (1997) 720p [ukr.eng] Hurtom.
Format :
Format version : Version 4
File size : 4.47 GiB
Duration : 1 h 26 min
Overall bit rate : 7 389 kb/s
Movie name : Crash Dive ( 720p) - by Justin
Encoded date : UTC 2019-04-01 20:37:10
Writing application : v32.0.0 ('Astral Progressions') 64-bit
Writing library : libebml v1.3.7 + v1.5.0

Video
ID : 1
Format : AVC
Format/Info : Advanced Video Codec
Format profile : [email protected]
Format settings : CABAC / 5 Ref Frames
Format settings, CABAC : Yes
Format settings, ReFrames : 5 frames
Codec ID : V_MPEG4/ISO/AVC
Duration : 1 h 26 min
Bit rate : 6 473 kb/s
Width : 1 280 pixels
Height : 720 pixels
Display aspect ratio : 16:9
Frame rate mode : Constant
Frame rate : 25.000 FPS
Original frame rate : 23.976 (23976/1000) FPS
Color space : YUV
Chroma subsampling : 4:2:0
Bit depth : 8 bits
Scan type : Progressive
Bits/(Pixel*Frame) : 0.281
Stream size : 4.09 GiB (91%)
Title : Crash Dive (1997)
Writing library : core 140 r2377 1ca7bb9
Encoding settings : cabac=1 / ref=5 / deblock=1:0:0 / analyse=0x3:0x113 / me=umh / subme=7 / psy=1 / psy_rd=1.00:0.00 / mixed_ref=1 / me_range=16 / chroma_me=1 / trellis=1 / 8x8dct=1 / cqm=0 / deadzone=21,11 / fast_pskip=0 / chroma_qp_offset=-2 / threads=12 / lookahead_threads=2 / sliced_threads=0 / nr=0 / decimate=1 / interlaced=0 / bluray_compat=0 / constrained_intra=0 / bframes=3 / b_pyramid=2 / b_adapt=2 / b_bias=0 / direct=3 / weightb=1 / open_gop=0 / weightp=2 / keyint=250 / keyint_min=23 / scenecut=40 / intra_refresh=0 / rc_lookahead=50 / rc=2pass / mbtree=1 / bitrate=6473 / ratetol=1.0 / qcomp=0.60 / qpmin=0 / qpmax=69 / qpstep=4 / cplxblur=20.0 / qblur=0.5 / ip_ratio=1.40 / aq=1:1.00
Language : English
Default : Yes
Forced : No

Audio #1
ID : 2
Format : AC-3
Format/Info : Audio Coding 3
Commercial name : Dolby Digital
Codec ID : A_AC3
Duration : 1 h 26 min
Bit rate mode : Constant
Bit rate : 192 kb/s
Channel(s) : 2 channels
Channel layout : L R
Sampling rate : 48.0 kHz
Frame rate : 31.250 FPS (1536 SPF)
Bit depth : 16 bits
Compression mode : Lossy
Stream size : 119 MiB (3%)
Title : 1+1 channel (DVO)
Language : Ukrainian
Service kind : Complete Main
Default : Yes
Forced : No

Audio #2
ID : 3
Format : AC-3
Format/Info : Audio Coding 3
Commercial name : Dolby Digital
Codec ID : A_AC3
Duration : 1 h 26 min
Bit rate mode : Constant
Bit rate : 448 kb/s
Channel(s) : 6 channels
Channel layout : L R C LFE Ls Rs
Sampling rate : 48.0 kHz
Frame rate : 31.250 FPS (1536 SPF)
Bit depth : 16 bits
Compression mode : Lossy
Stream size : 278 MiB (6%)
Title : 5.1 @ 448 kbps
Language : English
Service kind : Complete Main
Default : No
Forced : No
Скріншоти










Джерело: &


Срібний реліз (на рейтинг впливає 50% завантаженого)
 Трекер:    Зареєстрований   

Завантажити / скачати фільм українською



відео для новачків



 Зареєстрований:   2019-04-02 09:57
 Розмір:   4.47 GB 
 Оцінка фільму:   10/10 (Голосів: 3)
   
Ваш часовий пояс: GMT + 2 Години

Нова тема   Відповісти